<?xml version="1.0" standalone="no"?>
<!DOCTYPE svg PUBLIC "-//W3C//DTD SVG 1.1//EN" "http://www.w3.org/Graphics/SVG/1.1/DTD/svg11.dtd" >
<!--
2018-4-5: Created.
-->
<svg xmlns="http://www.w3.org/2000/svg">
<metadata>
Created by FontForge 20120731 at Thu Apr  5 05:10:13 2018
 By icons8

</metadata>
<defs>
<font id="fujisan" horiz-adv-x="512" >
  <font-face 
    font-family="fujisan"
    font-weight="500"
    font-stretch="normal"
    units-per-em="512"
    panose-1="2 0 6 3 0 0 0 0 0 0"
    ascent="448"
    descent="-64"
    bbox="-0.959961 -64 512.625 448.356"
    underline-thickness="25.6"
    underline-position="-51.2"
    unicode-range="U+0020-F12F"
  />
    <missing-glyph />
    <glyph glyph-name="space" unicode=" " horiz-adv-x="200" 
 />
    <glyph glyph-name="map-editing" unicode="&#xf10d;" 
d="M8.95996 427.52c0.348633 0.0439453 0.915039 0.0791016 1.2666 0.0791016c1.30664 0 3.31934 -0.46582 4.49316 -1.03906l118.4 -59.1992l118.399 59.1992c1.13477 0.52832 3.06934 0.956055 4.32031 0.956055s3.18652 -0.427734 4.32031 -0.956055l89.9199 -41.5996
c3.96387 -1.24121 7.18164 -5.61914 7.18164 -9.77344c0 -5.65332 -4.58789 -10.2412 -10.2412 -10.2412c-1.5625 0 -3.91992 0.652344 -5.26074 1.45508l-85.4395 39.6797l-118.721 -59.5205c-1.1709 -0.569336 -3.17773 -1.03125 -4.47949 -1.03125
s-3.30957 0.461914 -4.48047 1.03125l-108.159 54.0801v-366.08l112.64 -56.3193l118.399 59.2002c1.13477 0.527344 3.06934 0.955078 4.32031 0.955078s3.18652 -0.427734 4.32031 -0.955078l128.64 -59.2002l102.72 56v260.16l-0.000976562 0.144531
c0 5.65332 4.58887 10.2412 10.2412 10.2412c5.65332 0 10.2412 -4.58789 10.2412 -10.2412l-0.000976562 -0.144531v-266.24c-0.0283203 -3.36719 -2.46582 -7.38184 -5.44043 -8.95996l-112.64 -61.4404c-1.24414 -0.662109 -3.39844 -1.19922 -4.80859 -1.19922
c-1.19727 0 -3.05664 0.394531 -4.15137 0.879883l-128.64 59.5195l-118.721 -59.5195c-1.1709 -0.570312 -3.17773 -1.03223 -4.47949 -1.03223s-3.30957 0.461914 -4.48047 1.03223l-122.88 61.4395c-3.17969 1.54688 -5.75977 5.67285 -5.75977 9.20898v0.0712891v389.12
v0.0791016c0 4.98535 4.01367 9.53711 8.95996 10.1602zM462.08 427.52c12.7568 0.00292969 25.457 -4.98145 35.2002 -14.7197c19.4453 -19.4561 19.4658 -50.9336 0 -70.3994c0 0 -2.28711 -1.96582 -4.48047 -4.16016
c-0.526367 -1.02734 -1.67285 -2.46094 -2.55957 -3.2002c-0.261719 -0.261719 -1.28711 -0.96582 -1.28027 -0.959961l-200.32 -200.32c-1.02246 -1.12793 -3.0293 -2.41797 -4.47949 -2.87988l-76.7998 -20.4795
c-0.697266 -0.180664 -1.84668 -0.327148 -2.56543 -0.327148c-5.65332 0 -10.2412 4.58789 -10.2412 10.2412c0 0.719727 0.146484 1.86914 0.326172 2.56543l20.4805 76.7998c0.461914 1.45117 1.75195 3.45801 2.87988 4.48047l200.319 200.32l0.959961 1.2793
c0.541992 0.620117 1.54492 1.48047 2.24023 1.91992l5.12012 5.12012c9.7334 9.72852 22.4434 14.7178 35.2002 14.7197zM432.96 390.08l-198.4 -198.4l41.6006 -41.5996l198.399 198.4z" />
    <glyph glyph-name="right" unicode="&#xf101;" 
d="M305.6 313.92c0.132812 0.00585938 0.347656 0.0117188 0.480469 0.0117188s0.347656 -0.00585938 0.479492 -0.0117188c0.234375 0.0195312 0.615234 0.0351562 0.850586 0.0351562c2.44824 0 5.79492 -1.44922 7.46973 -3.23535l111.68 -111.359l7.04004 -7.36035
l-7.04004 -7.36035l-111.68 -111.359c-1.69727 -2.10645 -5.26953 -3.81543 -7.97363 -3.81543c-5.65332 0 -10.2412 4.58789 -10.2412 10.2412c0 2.7041 1.70898 6.27734 3.81543 7.97363l94.0791 94.0801h-302.399
c-0.132812 -0.00585938 -0.347656 -0.0107422 -0.480469 -0.0107422c-5.6582 0 -10.251 4.59277 -10.251 10.251c0 5.39941 4.37793 9.9873 9.77148 10.2402c0.131836 0.00585938 0.347656 0.0107422 0.479492 0.0107422
c0.132812 0 0.347656 -0.00488281 0.480469 -0.0107422h302.399l-94.0791 94.0801c-1.81836 1.67871 -3.29297 5.04883 -3.29297 7.52344c0 4.71973 3.76855 9.2334 8.41211 10.0762z" />
    <glyph glyph-name="apple" unicode="&#xf116;" 
d="M341.76 448c5.32031 0.400391 10.0801 -3.36035 10.8799 -8.63965c4.80078 -32.2402 -8.15918 -62.9199 -24.96 -84.4805c-9.23926 -11.8799 -21.5596 -22.0801 -35.5195 -29.4395c2.12012 0.799805 3.7998 0.719727 6.08008 1.59961
c13.7598 5.16016 30.5596 10.5596 53.4395 10.5596c35.8799 0 72.5205 -19.1592 98.5605 -51.5195c1.87988 -2.36035 2.59961 -5.48047 2 -8.44043c-0.640625 -2.95996 -2.52051 -5.47949 -5.2002 -6.91992c-36.2803 -19.8799 -50.6797 -54.9199 -47.6797 -88.96
s23.7598 -66.2402 60.1592 -80c2.64062 -1 4.76074 -3.04004 5.84082 -5.63965c1.12012 -2.60059 1.08008 -5.56055 -0.0800781 -8.12012c-11.1201 -24.5596 -16.9199 -36.5596 -31.3604 -58.5596c-10.0801 -15.3203 -22.2803 -32.8008 -37.1201 -47.04
c-14.8398 -14.2402 -32.7197 -25.7607 -53.7598 -25.9199c-17.6797 -0.160156 -29.8398 6 -40.6396 10.8799c-10.8008 4.87988 -20.7607 9.12012 -40 8.95996h-0.320312c-19.3203 -0.0800781 -29.5996 -4.40039 -40.6396 -9.28027s-23.3203 -10.7598 -40.96 -10.5596
c-20.6406 0.199219 -38.2402 10.3594 -52.8008 23.6797c-14.5596 13.3203 -26.3594 30.0801 -36.4795 45.4395c-57.4404 87.4805 -65.04 189.841 -27.2002 248c26 40.04 67.2402 64 107.52 64c20.2803 0 36.6006 -5.47949 50.8809 -10.5596
c5.23926 -1.87988 9.59961 -2.04004 14.3994 -3.52051c-5.35938 31.2803 8.75977 61.4004 25.6006 81.9209c19.2393 23.3193 50.3193 40.5996 79.3594 42.5596zM330.88 423.68c-19.1201 -4.87988 -39.9199 -15.8398 -52.4795 -31.04
c-11.96 -14.5596 -19.8008 -35.1592 -20.1602 -55.04c20.0801 3.28027 40.7998 14.2402 53.1201 30.0801c11.7598 15.0801 18.8398 35.3203 19.5195 56zM171.52 317.12c-31.96 0 -67.9199 -19.8799 -90.5596 -54.7197c-30.8799 -47.4404 -26.5596 -143.681 27.2002 -225.601
c9.75977 -14.8398 20.9199 -30.2803 33.2803 -41.5996c12.3594 -11.3203 25.3594 -18.1201 39.3594 -18.2402c13.2402 -0.120117 20.7998 3.87988 32.3203 8.95996c11.5195 5.08008 26.3994 10.7598 48.96 10.8799c22.5996 0.200195 37.2803 -5.71973 48.6396 -10.8799
c11.3604 -5.16016 18.8398 -9.08008 32 -8.95996c13.6406 0.120117 27.2002 7.87988 40 20.1602s24.4404 28.5996 34.2402 43.5195c11.8799 18.1201 17.2002 29.7607 25.2803 47.3604c-37.3203 18.6396 -60.04 54.4404 -63.3604 92.1602
c-3.32031 37.3203 13.04 75.7998 48 100.479c-21.8398 23.1602 -49.5596 36.4805 -75.2002 36.4805c-19.6396 0 -32.8398 -4.32031 -46.0801 -9.28027c-13.2393 -4.95996 -26.7598 -10.8799 -43.8398 -10.8799c-17.4795 0 -32.3193 5.87988 -46.3994 10.8799
s-27.3203 9.28027 -43.8408 9.28027z" />
    <glyph glyph-name="apple-filled" unicode="&#xf115;" 
d="M455.96 92.1602c-11.04 -24.5205 -16.3604 -35.4805 -30.5596 -57.1201c-19.8809 -30.2402 -47.9199 -68 -82.5605 -68.2402c-30.8398 -0.280273 -38.7998 20.1201 -80.6797 19.7598c-41.8398 -0.199219 -50.5605 -20.1592 -81.4404 -19.8398
c-34.6797 0.320312 -61.2002 34.3203 -81.0801 64.5205c-55.5996 84.6797 -61.4795 183.96 -27.1201 236.76c24.3203 37.4404 62.7607 59.4404 98.8809 59.4404c36.7998 0 59.9199 -20.2002 90.3193 -20.2002c29.5205 0 47.4805 20.2402 90.04 20.2402
c32.1602 0 66.1602 -17.5205 90.4805 -47.7607c-79.5205 -43.5996 -66.6006 -157.16 13.7197 -187.56zM319.44 361.28c-16.5205 -21.2803 -45.04 -37.7207 -72.6006 -36.8398c-5.04004 27.3193 7.91992 55.5596 23.5605 74.5996c17.2393 20.8799 46.7598 37 72 38.7197
c4.2793 -28.5596 -7.48047 -56.5996 -22.96 -76.4795z" />
    <glyph glyph-name="menu-2" unicode="&#xf122;" 
d="M0 355.84h512v-20.4795h-512v20.4795zM0 202.24h512v-20.4805h-512v20.4805zM0 48.6396h512v-20.4795h-512v20.4795z" />
    <glyph glyph-name="back" unicode="&#xf124;" 
d="M358.2 407.12c4.24023 0.160156 8.08008 -2.32031 9.71973 -6.24023c1.63965 -3.87988 0.759766 -8.36035 -2.28027 -11.3203l-197.56 -197.56l197.56 -197.56c2.68066 -2.56055 3.76074 -6.40039 2.80078 -9.95996
c-0.920898 -3.60059 -3.7207 -6.40039 -7.32031 -7.32031c-3.56055 -0.959961 -7.40039 0.120117 -9.95996 2.7998l-204.8 204.8c-4 4 -4 10.4805 0 14.4805l204.8 204.8c1.83984 1.91992 4.35938 3.04004 7.04004 3.08008z" />
    <glyph glyph-name="book-shelf" unicode="&#xf12c;" 
d="M81.9199 417.28h51.2002c5.67969 0 10.2402 -4.60059 10.2402 -10.2402v-266.24c0 -5.67969 -4.56055 -10.2402 -10.2402 -10.2402h-51.2002c-5.63965 0 -10.2402 4.56055 -10.2402 10.2402v266.24c0 5.63965 4.60059 10.2402 10.2402 10.2402zM174.08 417.28h51.2002
c5.67969 0 10.2393 -4.60059 10.2393 -10.2402v-266.24c0 -5.67969 -4.55957 -10.2402 -10.2393 -10.2402h-51.2002c-5.63965 0 -10.2402 4.56055 -10.2402 10.2402v266.24c0 5.63965 4.60059 10.2402 10.2402 10.2402zM97.2803 376.32
c-5.68066 0 -10.2402 -4.60059 -10.2402 -10.2402s4.55957 -10.2402 10.2402 -10.2402h20.4795c5.68066 0 10.2402 4.60059 10.2402 10.2402s-4.55957 10.2402 -10.2402 10.2402h-20.4795zM189.44 376.32c-5.68066 0 -10.2402 -4.60059 -10.2402 -10.2402
s4.55957 -10.2402 10.2402 -10.2402h20.4795c5.67969 0 10.2402 4.60059 10.2402 10.2402s-4.56055 10.2402 -10.2402 10.2402h-20.4795zM384.96 361.6c5.48047 1.32031 11.1602 -2.15918 12.4805 -7.67969l49.2793 -199.36
c0.640625 -2.63965 0.160156 -5.35938 -1.2793 -7.67969c-1.44043 -2.32031 -3.76074 -3.83984 -6.40039 -4.47949l-49.9199 -11.8408c-0.799805 -0.15918 -1.48047 -0.319336 -2.24023 -0.319336c-4.63965 0 -8.7998 3.2793 -9.91992 8l-49.2803 199.359v-196.8
c0 -5.67969 -4.55957 -10.2402 -10.2393 -10.2402h-51.2002c-5.64062 0 -10.2402 4.56055 -10.2402 10.2402v204.8c0 5.64062 4.59961 10.2402 10.2402 10.2402h51.2002c5.67969 0 10.2393 -4.59961 10.2393 -10.2402v-3.51953
c0.240234 1.08008 0.680664 2.24023 1.28027 3.2002c1.44043 2.31934 3.75977 3.83984 6.40039 4.47949zM378.56 317.12c-1.31934 0.240234 -2.7998 0 -4.15918 -0.320312l-9.91992 -2.24023c-5.48047 -1.2793 -8.96094 -6.63965 -7.68066 -12.1592
c1.12012 -4.7207 5.60059 -8 10.2402 -8c0.759766 0 1.44043 0.119141 2.24023 0.319336l9.91992 2.24023c5.47949 1.28027 8.95996 6.95996 7.67969 12.4805c-0.959961 4.11914 -4.39941 7 -8.32031 7.67969zM286.72 314.88
c-5.67969 0 -10.2393 -4.59961 -10.2393 -10.2402c0 -5.63965 4.55957 -10.2393 10.2393 -10.2393h10.2402c5.67969 0 10.2402 4.59961 10.2402 10.2393c0 5.64062 -4.56055 10.2402 -10.2402 10.2402h-10.2402zM404.8 197.44l-9.91992 -2.24023
c-5.51953 -1.28027 -8.95996 -7 -7.67969 -12.4805c1.12012 -4.71973 5.28027 -8 9.91992 -8c0.759766 0 1.75977 0.120117 2.55957 0.320312l9.91992 2.55957c5.52051 1.28027 8.95996 6.68066 7.68066 12.1602c-1.32031 5.52051 -7 8.91992 -12.4805 7.68066zM97.2803 192
c-5.68066 0 -10.2402 -4.59961 -10.2402 -10.2402c0 -5.63965 4.55957 -10.2402 10.2402 -10.2402h20.4795c5.68066 0 10.2402 4.60059 10.2402 10.2402c0 5.64062 -4.55957 10.2402 -10.2402 10.2402h-20.4795zM189.44 192c-5.68066 0 -10.2402 -4.59961 -10.2402 -10.2402
c0 -5.63965 4.55957 -10.2402 10.2402 -10.2402h20.4795c5.67969 0 10.2402 4.60059 10.2402 10.2402c0 5.64062 -4.56055 10.2402 -10.2402 10.2402h-20.4795zM286.72 192c-5.67969 0 -10.2393 -4.55957 -10.2393 -10.2402c0 -5.67969 4.55957 -10.2402 10.2393 -10.2402
h10.2402c5.67969 0 10.2402 4.56055 10.2402 10.2402c0 5.68066 -4.56055 10.2402 -10.2402 10.2402h-10.2402zM30.7197 120.32h450.561c5.67969 0 10.2393 -4.56055 10.2393 -10.2402v-30.7197c0 -5.68066 -4.55957 -10.2402 -10.2393 -10.2402h-450.561
c-5.63965 0 -10.2393 4.55957 -10.2393 10.2402v30.7197c0 5.67969 4.59961 10.2402 10.2393 10.2402zM61.4404 48.6396h51.1992v-56.3193c0 -14.1201 -11.4795 -25.6006 -25.5996 -25.6006s-25.5996 11.4805 -25.5996 25.6006v56.3193zM399.36 48.6396h51.1992v-56.3193
c0 -14.1201 -11.4795 -25.6006 -25.5996 -25.6006s-25.5996 11.4805 -25.5996 25.6006v56.3193z" />
    <glyph glyph-name="one-free" unicode="&#xf11a;" 
d="M203.2 446.4c3 -0.200195 5.83984 -1.04004 8.63965 -2.24023l0.320312 -0.320312h0.320312l43.5195 -21.1201l44.4805 21.1201c0.119141 0.0400391 0.199219 -0.0400391 0.319336 0c10.96 5.28027 23.9199 1.64062 31.6807 -7.67969l0.319336 -0.320312v-0.320312
l28.7998 -39.0391l48.96 -1.60059h0.320312c12.8398 -0.160156 22.6006 -10.1602 24.3203 -22.0801l7.35938 -48.6396l42.8809 -24h0.319336l0.320312 -0.320312c9.43945 -6.28027 14.4795 -18.2402 11.2002 -29.7598v-0.320312l-0.320312 -0.319336l-15.6797 -46.4004
l26.2393 -41.9199l-0.639648 -0.320312c7.2002 -9.7998 5.28027 -23.6396 -3.51953 -31.6797l0.319336 -0.320312l-0.639648 -0.639648l-34.8799 -33.9199l3.83984 -48.6406v-0.959961h-0.320312c1.24023 -12.3994 -6.55957 -23.5596 -18.2393 -26.8799l-46.7207 -13.1201
l-19.5195 -45.4395c-4.91992 -11.4805 -17.2002 -16.9199 -28.1602 -15.3604h-0.639648l-48.6406 10.2402l-37.1201 -30.7197l-0.639648 -0.640625c-4.40039 -2.91992 -10.2002 -4.7998 -16 -4.7998c-5.36035 0 -10.7598 1.28027 -16 4.7998l-0.639648 0.640625
l-37.1201 30.7197l-48 -9.91992l-0.640625 -0.320312v0.320312c-11.9199 -3.04004 -23.5996 3.7998 -28.4795 14.3994l-0.320312 0.640625l-19.5195 45.4395l-47.6807 14.0801c-12.2393 3.48047 -18.5596 15.1602 -18.5596 26.2402v0.959961l3.51953 49.5996
l-35.5195 34.2402v0.320312c-8.44043 8.43945 -9.83984 21.7197 -3.2002 32v0.320312l25.9199 41.5996l-16 46.7197v0.320312c-3.2793 11.5195 1.75977 23.4795 11.2002 29.7598l0.320312 0.320312h0.319336l42.8809 24.6396l7.35938 48
c1.71973 12.1602 11.96 20.1602 23.04 21.7598l0.639648 0.320312h0.640625l50.5596 0.959961l29.1201 38.4004l0.320312 0.639648l0.320312 -0.320312c3.47949 4.9209 8.2793 8.48047 13.7598 9.9209c2.83984 0.759766 5.95996 1.15918 8.95996 0.959961zM199.68 425.92
c-1.23926 -0.280273 -2.2793 -1.04004 -2.87988 -1.91992v-0.320312l-0.319336 -0.319336l-32.6406 -42.8799l-3.2002 -4.16016h-4.7998l-54.0801 -0.959961c-3.24023 -0.480469 -5.43945 -2.32031 -5.75977 -4.48047v-0.320312l-8 -53.1191l-0.959961 -4.80078
l-4.16016 -2.55957l-46.3994 -26.2402c-2.76074 -1.83984 -3.84082 -4.04004 -3.2002 -6.71973v-0.320312l17.2793 -50.8799l1.60059 -4.47949l-2.56055 -4.16016l-28.4795 -46.0801h-0.320312v-0.320312c-1.31934 -2 -1.12012 -4.63965 0.640625 -6.39941l39.04 -37.7607
l3.19922 -3.51953l-0.319336 -4.7998l-3.84082 -53.4404c0 -3.28027 1.76074 -5.7998 3.84082 -6.40039l52.1592 -15.3594l4.48047 -1.60059l1.91992 -4.15918l21.7598 -50.2402c1.36035 -3.16016 3.16016 -4.08008 5.12012 -3.52051h0.320312l0.320312 0.320312
l53.1191 11.2002l4.80078 0.959961l3.83984 -3.2002l40.3193 -32.96c0.880859 -0.599609 3.68066 -1.59961 4.48047 -1.59961c2.40039 0 2.71973 0.439453 4.48047 1.59961l40.3193 32.96l3.83984 3.2002l4.80078 -0.959961l52.4795 -11.2002h0.320312
c3.12012 -0.360352 4.91992 0.480469 6.08008 3.2002l21.7598 50.2402l1.91992 4.47949l4.48047 1.28027l51.1992 14.3994c2.32031 0.680664 4.36035 3.32031 4.16016 4.80078l-0.320312 0.639648v0.320312l-4.15918 54.0801l-0.320312 4.7998l3.51953 3.51953
l39.04 37.7598l0.640625 0.640625c2.43945 2.04004 2.47949 2.59961 0.639648 4.7998l-0.639648 0.639648l-0.320312 0.640625l-28.4795 46.0801l-2.56055 4.16016l1.60059 4.47949l16.96 50.8799c0.799805 2.83984 0 5.12012 -2.88086 7.04004l-46.3994 26.2402
l-4.48047 2.24023l-0.639648 5.12012l-8.32031 53.1191c-0.319336 2.32031 -2.83984 4.80078 -4.16016 4.80078h-0.319336l-54.4004 1.91992l-4.7998 0.319336l-2.87988 3.84082l-31.3604 42.5596c-0.120117 0.160156 -0.200195 0.160156 -0.319336 0.320312
c-2.36035 2.43945 -5.52051 2.83984 -6.7207 2.23926h-0.319336l-48.96 -23.6797l-4.48047 -2.24023l-4.48047 2.24023l-47.6797 23.3604c-1.51953 0.639648 -2.91992 0.919922 -4.16016 0.639648zM252.8 323.2h16.6406v-122.88h-21.7607v87.04h-29.4395v15.3594
c23.5996 0.600586 33.5596 16.4404 34.5596 20.4805zM122.88 161.28h51.2002v-13.4404h-34.8799v-16.3203h30.7197v-12.1592h-30.7197v-29.7607h-16.3203v71.6807zM186.24 161.28h38.0801c7.16016 0 21.4395 -4.16016 21.4395 -19.5205
c0 -12.2793 -7.12012 -16.2002 -11.2002 -18.2402c2.04004 -1.03906 10.2402 -3.0791 10.2402 -20.4795c0 -2.04004 -0.200195 -9.36035 2.87988 -13.4404h-15.3594c-1.04004 2.04004 -0.879883 5.24023 -1.91992 8.32031
c-1.04004 11.2803 -1.16016 20.4805 -13.4404 20.4805h-15.3604v-28.8008h-15.3594v71.6807zM262.08 161.28h53.4395v-13.4404h-38.0791v-15.3594h34.8799v-12.1602h-34.8799v-17.2803h39.04v-13.4404h-54.4004v71.6807zM334.72 161.28h53.4404v-13.4404h-38.0801v-15.3594
h34.8799v-12.1602h-34.8799v-17.2803h39.04v-13.4404h-54.4004v71.6807zM201.6 149.12v-20.4805h17.6006c4.08008 0 11.2002 1.04004 11.2002 10.2402s-7.12012 10.2402 -11.2002 10.2402h-17.6006z" />
    <glyph glyph-name="instagram-filled" unicode="&#xf111;" 
d="M153.6 427.52h204.801c73.3994 0 133.119 -59.7197 133.119 -133.119v-204.801c0 -73.3994 -59.7197 -133.119 -133.119 -133.119h-204.801c-73.3994 0 -133.119 59.7197 -133.119 133.119v204.801c0 73.3994 59.7197 133.119 133.119 133.119zM389.12 345.6
c-11.3203 0 -20.4805 -9.15918 -20.4805 -20.4795s9.16016 -20.4805 20.4805 -20.4805s20.4795 9.16016 20.4795 20.4805s-9.15918 20.4795 -20.4795 20.4795zM256 314.88c-67.7598 0 -122.88 -55.1201 -122.88 -122.88s55.1201 -122.88 122.88 -122.88
s122.88 55.1201 122.88 122.88s-55.1201 122.88 -122.88 122.88zM256 294.4c56.4805 0 102.4 -45.9199 102.4 -102.4s-45.9199 -102.4 -102.4 -102.4s-102.4 45.9199 -102.4 102.4s45.9199 102.4 102.4 102.4z" />
    <glyph glyph-name="android-os" unicode="&#xf113;" 
d="M167.68 448.32c3.83984 0.319336 7.56055 -1.52051 9.60059 -4.80078l24 -35.5195c16.8799 6.08008 35.4395 9.28027 54.7197 9.28027s37.8398 -3.2002 54.7197 -9.28027l24 35.5195c1.44043 2.28027 3.76074 3.88086 6.40039 4.48047
c4.16016 0.959961 8.47949 -0.799805 10.7998 -4.36035c2.36035 -3.55957 2.28027 -8.19922 -0.240234 -11.6396l-21.7598 -32.6396c37.04 -19.4404 63.4805 -53.1201 69.4404 -93.1201v-0.320312v-0.320312c0.120117 -0.959961 0.120117 -1.91992 0 -2.87988v-14.0801
c6.08008 3.56055 12.96 5.76074 20.4795 5.76074c22.5205 0 40.96 -18.4404 40.96 -40.96v-122.881c0 -22.5195 -18.4395 -40.96 -40.96 -40.96c-7.51953 0 -14.3994 2.2002 -20.4795 5.76074v-26.2402c0 -16.8398 -13.8799 -30.7197 -30.7207 -30.7197h-10.2393v-61.4404
c0 -22.5195 -18.4404 -40.96 -40.96 -40.96c-22.5205 0 -40.96 18.4404 -40.96 40.96v61.4404h-40.9609v-61.4404c0 -22.5195 -18.4395 -40.96 -40.96 -40.96c-22.5195 0 -40.96 18.4404 -40.96 40.96v61.4404h-10.2393c-16.8408 0 -30.7207 13.8799 -30.7207 30.7197
v26.2402c-6.08008 -3.56055 -12.96 -5.76074 -20.4795 -5.76074c-22.5205 0 -40.96 18.4404 -40.96 40.96v122.881c0 22.5195 18.4395 40.96 40.96 40.96c7.51953 0 14.3994 -2.2002 20.4795 -5.76074v14.4004c-0.0400391 0.519531 -0.0400391 1.08008 0 1.59961v0.640625
v0.959961v0.319336v0.320312c6.16016 39.7197 32.6006 73.1201 69.4404 92.4805l-21.7598 32.6396c-2.04004 2.7998 -2.52051 6.40039 -1.28027 9.63965c1.24023 3.24023 4 5.60059 7.36035 6.36035c0.399414 0.120117 0.839844 0.240234 1.2793 0.320312zM256 396.8
c-19.3604 0 -37.5195 -3.67969 -53.4404 -10.5596c-0.599609 -0.400391 -1.23926 -0.720703 -1.91992 -0.959961c-31.3594 -14.1602 -54.1992 -40.1201 -63.04 -70.4004h236.801c-8.95996 30.7197 -32.2803 57 -64.3203 71.04
c-0.320312 0.0800781 -0.639648 0.200195 -0.959961 0.320312c-15.8398 6.7998 -33.8799 10.5596 -53.1201 10.5596zM199.68 366.08c8.48047 0 15.3604 -6.87988 15.3604 -15.3604c0 -8.51953 -6.87988 -15.3594 -15.3604 -15.3594
c-8.51953 0 -15.3594 6.83984 -15.3594 15.3594c0 8.48047 6.83984 15.3604 15.3594 15.3604zM312.32 366.08c8.51953 0 15.3594 -6.87988 15.3594 -15.3604c0 -8.51953 -6.83984 -15.3594 -15.3594 -15.3594c-8.48047 0 -15.3604 6.83984 -15.3604 15.3594
c0 8.48047 6.87988 15.3604 15.3604 15.3604zM133.12 294.4v-225.28c0 -5.75977 4.47949 -10.2402 10.2402 -10.2402h18.2393c1.36035 0.280273 2.80078 0.280273 4.16016 0h118.721c1.35938 0.280273 2.7998 0.280273 4.15918 0h80
c5.76074 0 10.2402 4.48047 10.2402 10.2402v225.28h-245.76zM92.1602 273.92c-11.4404 0 -20.4805 -9.04004 -20.4805 -20.4795v-122.881c0 -11.4395 9.04004 -20.4795 20.4805 -20.4795c11.4395 0 20.4795 9.04004 20.4795 20.4795v122.881
c0 11.4395 -9.04004 20.4795 -20.4795 20.4795zM419.84 273.92c-11.4395 0 -20.4795 -9.04004 -20.4795 -20.4795v-122.881c0 -11.4395 9.04004 -20.4795 20.4795 -20.4795c11.4404 0 20.4805 9.04004 20.4805 20.4795v122.881c0 11.4395 -9.04004 20.4795 -20.4805 20.4795
zM174.08 38.4004v-61.4404c0 -11.4404 9.04004 -20.4795 20.4795 -20.4795c11.4404 0 20.4805 9.03906 20.4805 20.4795v61.4404h-40.96zM296.96 38.4004v-61.4404c0 -11.4404 9.04004 -20.4795 20.4805 -20.4795c11.4395 0 20.4795 9.03906 20.4795 20.4795v61.4404h-40.96
z" />
    <glyph glyph-name="message" unicode="&#xf12f;" 
d="M0 376.32h512v-32l-256 -200.641l-256 203.2v29.4404zM0 320.96l249.6 -198.4c1.88086 -1.47949 4.16016 -2.23926 6.40039 -2.23926s4.55957 0.799805 6.40039 2.23926l249.6 195.841v-310.721h-512v313.28z" />
    <glyph glyph-name="instagram" unicode="&#xf110;" 
d="M153.6 427.52h204.801c73.3994 0 133.119 -59.7197 133.119 -133.119v-204.801c0 -73.3994 -59.7197 -133.119 -133.119 -133.119h-204.801c-73.3994 0 -133.119 59.7197 -133.119 133.119v204.801c0 73.3994 59.7197 133.119 133.119 133.119zM153.6 407.04
c-62.3193 0 -112.64 -50.3203 -112.64 -112.64v-204.801c0 -62.3193 50.3203 -112.64 112.64 -112.64h204.801c62.3193 0 112.64 50.3203 112.64 112.64v204.801c0 62.3193 -50.3203 112.64 -112.64 112.64h-204.801zM389.12 345.6
c11.3203 0 20.4795 -9.15918 20.4795 -20.4795s-9.15918 -20.4805 -20.4795 -20.4805s-20.4805 9.16016 -20.4805 20.4805s9.16016 20.4795 20.4805 20.4795zM256 314.88c67.7598 0 122.88 -55.1201 122.88 -122.88s-55.1201 -122.88 -122.88 -122.88
s-122.88 55.1201 -122.88 122.88s55.1201 122.88 122.88 122.88zM256 294.4c-56.6797 0 -102.4 -45.7207 -102.4 -102.4s45.7207 -102.4 102.4 -102.4s102.4 45.7207 102.4 102.4s-45.7207 102.4 -102.4 102.4z" />
    <glyph glyph-name="response-filled" unicode="&#xf10a;" 
d="M256 407.04c129.751 0 235.52 -90.9209 235.51 -204.729c0 -113.817 -105.769 -204.738 -235.52 -204.738c-20.2861 0 -39.7012 2.43652 -58.5938 6.86035c-5.67285 -6.63477 -42.3525 -47.9531 -105.738 -47.9531h-18.2891l10.4658 15.001
c14.7354 21.125 21.9854 39.8545 25.5791 53.1562c2.89844 10.7314 2.73438 14.3154 2.82617 16.5273c-55.582 37.5703 -91.7598 95.0576 -91.7598 161.137c0 113.807 105.769 204.738 235.52 204.738zM337.92 99.8398v71.5469c0 37.3252 -24.1152 61.4404 -61.4395 61.4404
h-87.9209l43.96 43.96c4.00391 4.00391 4.00391 10.4756 0 14.4795s-10.4756 4.00391 -14.4795 0l-68.6797 -68.6797l68.6797 -68.6797c1.99707 -1.99707 4.61816 -3 7.24023 -3c2.62109 0 5.24219 1.00293 7.23926 3c4.00391 4.00391 4.00391 10.4756 0 14.4795
l-43.96 43.96h87.9209c26.0293 0 40.96 -14.9297 40.96 -40.96v-71.5469c0 -5.66211 4.57715 -10.2402 10.2393 -10.2402c5.66309 0 10.2402 4.57812 10.2402 10.2402z" />
    <glyph glyph-name="android-os-filled" unicode="&#xf114;" 
d="M166.72 447.68c3.91992 0.760742 8.2002 -0.639648 10.5605 -4.16016l24.3193 -35.8398c16.8809 6.16016 35.2002 9.60059 54.4004 9.60059s37.5195 -3.44043 54.4004 -9.60059l24.3193 35.8398c3.16016 4.68066 9.68066 6.04004 14.4004 2.88086
c4.67969 -3.16016 5.71973 -9.7207 2.55957 -14.4004l-22.0801 -32.96c34.1201 -18.0801 59.5605 -48.1201 67.8408 -84.1602h-282.881c8.28027 36.04 33.7207 66.0801 67.8408 84.1602l-22.0801 32.96c-3.16016 4.67969 -2.12012 11.2402 2.55957 14.4004
c1.16016 0.799805 2.52051 1.04004 3.83984 1.2793zM199.68 366.08c-8.51953 0 -15.3594 -6.87988 -15.3594 -15.3604c0 -8.51953 6.83984 -15.3594 15.3594 -15.3594c8.48047 0 15.3604 6.83984 15.3604 15.3594c0 8.48047 -6.87988 15.3604 -15.3604 15.3604z
M312.32 366.08c-8.48047 0 -15.3604 -6.87988 -15.3604 -15.3604c0 -8.51953 6.87988 -15.3594 15.3604 -15.3594c8.51953 0 15.3594 6.83984 15.3594 15.3594c0 8.48047 -6.83984 15.3604 -15.3594 15.3604zM81.9199 294.4c3.59961 0 7.04004 -0.760742 10.2402 -1.91992
v-200.961c-3.2002 -1.15918 -6.64062 -1.91992 -10.2402 -1.91992c-16.96 0 -30.7197 13.7607 -30.7197 30.7207v143.359c0 16.96 13.7598 30.7207 30.7197 30.7207zM112.64 294.4h286.721v-225.28c0 -16.9199 -13.8008 -30.7197 -30.7207 -30.7197h-225.279
c-16.9199 0 -30.7207 13.7998 -30.7207 30.7197v225.28zM430.08 294.4c16.96 0 30.7197 -13.7607 30.7197 -30.7207v-143.359c0 -16.96 -13.7598 -30.7207 -30.7197 -30.7207c-3.59961 0 -7.04004 0.800781 -10.2402 1.91992v200.961
c3.2002 1.15918 6.64062 1.91992 10.2402 1.91992zM153.6 17.9199h81.9199v-40.96c0 -22.5996 -18.3594 -40.96 -40.96 -40.96c-22.5996 0 -40.96 18.3604 -40.96 40.96v40.96zM276.48 17.9199h81.9199v-40.96c0 -22.5996 -18.3604 -40.96 -40.96 -40.96
c-22.6006 0 -40.96 18.3604 -40.96 40.96v40.96z" />
    <glyph glyph-name="twitter" unicode="&#xf104;" 
d="M512.625 341.115c-14.1006 -21.1152 -31.959 -39.6807 -52.5215 -54.5283c0.194336 -4.48535 0.307617 -9.05176 0.307617 -13.6396c0 -139.101 -105.933 -299.54 -299.623 -299.54c-59.4531 0 -114.831 17.4072 -161.402 47.2979
c8.22266 -0.982422 16.5781 -1.47461 25.1084 -1.47461c49.3467 0 94.751 16.8145 130.765 45.0459c-46.0693 0.849609 -84.9307 31.3555 -98.376 73.1445c6.44141 -1.24902 13.0459 -1.9043 19.8457 -1.9043c9.60449 0 18.9131 1.26953 27.7197 3.68555
c-48.1387 9.72852 -84.4287 52.2246 -84.4287 103.261v1.34082c14.1924 -7.89453 30.4023 -12.6357 47.6875 -13.1885c-28.2832 18.9131 -46.8379 51.1279 -46.8379 87.6543c0 19.2822 5.18164 37.376 14.2441 52.9609c51.9473 -63.7031 129.546 -105.625 217.057 -110.019
c-1.8125 7.72168 -2.75391 15.749 -2.75391 23.9922c0 58.1436 47.1445 105.288 105.308 105.288c30.2803 0 57.6514 -12.7695 76.8408 -33.249c23.9727 4.70996 46.541 13.4756 66.8779 25.5283c-7.84375 -24.5557 -24.5557 -45.21 -46.3154 -58.2451
c21.3193 2.57031 41.5947 8.21191 60.498 16.5889z" />
    <glyph glyph-name="map-editing-filled" unicode="&#xf10c;" 
d="M254.4 428.16c1.53516 0 3.26367 -0.12793 4.7998 -0.640625l89.9199 -41.9199l13.4395 -7.35938l19.2002 -10.2402l37.1201 37.1201l0.959961 0.959961c0.322266 0.384766 0.895508 0.958008 1.28027 1.28027l5.75977 5.75977
c19.4561 19.4561 51.2637 19.4561 70.7197 0c9.72852 -9.72852 14.5283 -22.5283 14.4004 -35.2002v-349.76c0 -4.0957 -2.04785 -7.23242 -5.12012 -9.28027l-112.64 -61.4395c-2.04785 -1.02441 -3.07227 -0.959961 -5.12012 -0.959961
c-1.02441 0 -3.13574 -0.0644531 -4.16016 0.959961l-128.96 59.5195l-118.72 -59.5195c-3.07227 -1.02441 -6.20801 -1.02441 -9.28027 0l-122.88 61.4395c-4.0957 2.04785 -6.08008 5.18457 -6.08008 9.28027v389.12c0 4.0957 2.04785 7.23145 5.12012 9.2793
c3.07227 1.02441 7.16797 2.04883 10.2402 0l118.72 -59.5195l116.8 60.4795c1.53613 0.512695 2.94434 0.640625 4.48047 0.640625zM460.8 408c-8.48633 0 -15.9189 -3.47168 -21.4395 -8.95996l43.1992 -43.2002c5.54199 5.5293 8.95996 12.9072 8.95996 21.4404
c0 17.4072 -13.3115 30.7197 -30.7197 30.7197zM425.92 383.36l-184.64 -184.641l41.9199 -41.9199l184.64 184.641zM231.36 179.84l-12.1602 -45.1201l45.1201 11.8398z" />
    <glyph glyph-name="menu" unicode="&#xf108;" 
d="M0 405.333h512v-42.666h-512v42.666zM0 213.333h512v-42.666h-512v42.666zM0 21.333h512v-42.666h-512v42.666z" />
    <glyph glyph-name="shopping-cart-filled" unicode="&#xf120;" 
d="M20.4805 427.52h68.1592c37.5205 0 49.3604 -21.6797 56.3203 -45.1191l21.7598 -88h314.561c3.31934 0 6.43945 -1.7207 8.31934 -4.48047c1.88086 -2.75977 2.48047 -6.16016 1.28027 -9.28027l-73.5996 -194.56
c-1.48047 -3.95996 -5.36035 -6.71973 -9.60059 -6.71973h-187.84l7.04004 -28.1602c5.87988 -22.2402 8.87988 -33.2803 36.4805 -33.2803h156.479c5.64062 0 10.2402 -4.59961 10.2402 -10.2402c0 -1.16016 -0.280273 -2.16016 -0.639648 -3.19922
c6.67969 -7.28027 10.8799 -16.8809 10.8799 -27.5205c0 -22.5996 -18.3604 -40.96 -40.96 -40.96c-22.6006 0 -40.96 18.3604 -40.96 40.96c0 7.48047 2.23926 14.4404 5.75977 20.4805h-62.7197c3.51953 -6.04004 5.75977 -13 5.75977 -20.4805
c0 -22.5996 -18.3604 -40.96 -40.96 -40.96c-22.6006 0 -40.96 18.3604 -40.96 40.96c0 9.87988 3.75977 18.8398 9.59961 25.9199c-18.5596 8.7998 -23.4795 27.04 -27.8398 43.5205l-81.9199 330.56c-6.91992 23.2402 -15.1201 30.0801 -36.4805 30.0801h-47.6797
c0 -11.3203 -9.16016 -20.4805 -20.4795 -20.4805c-11.3203 0 -20.4805 9.16016 -20.4805 20.4805s9.16016 20.4795 20.4805 20.4795zM266.24 -2.55957c-11.2803 0 -20.4805 -9.2002 -20.4805 -20.4805s9.2002 -20.4795 20.4805 -20.4795
c11.2793 0 20.4795 9.19922 20.4795 20.4795s-9.2002 20.4805 -20.4795 20.4805zM399.36 -2.55957c-11.2803 0 -20.4805 -9.2002 -20.4805 -20.4805s9.2002 -20.4795 20.4805 -20.4795c11.2793 0 20.4795 9.19922 20.4795 20.4795s-9.2002 20.4805 -20.4795 20.4805z" />
    <glyph glyph-name="nook" unicode="&#xf127;" 
d="M122.88 448h266.24c45.3604 0 81.9199 -36.5596 81.9199 -81.9199v-348.16c0 -45.3604 -36.5596 -81.9199 -81.9199 -81.9199h-266.24c-45.3604 0 -81.9199 36.5596 -81.9199 81.9199v348.16c0 45.3604 36.5596 81.9199 81.9199 81.9199zM122.88 427.52
c-34.5195 0 -61.4395 -26.9199 -61.4395 -61.4395v-348.16c0 -34.5195 26.9199 -61.4395 61.4395 -61.4395h266.24c34.5195 0 61.4395 26.9199 61.4395 61.4395v348.16c0 34.5195 -26.9199 61.4395 -61.4395 61.4395h-266.24zM122.88 396.8h266.24
c16.8398 0 30.7197 -13.8799 30.7197 -30.7197v-286.72c0 -16.8408 -13.8799 -30.7207 -30.7197 -30.7207h-266.24c-16.8398 0 -30.7197 13.8799 -30.7197 30.7207v286.72c0 16.8398 13.8799 30.7197 30.7197 30.7197zM122.88 376.32
c-5.67969 0 -10.2402 -4.56055 -10.2402 -10.2402v-286.72c0 -5.68066 4.56055 -10.2402 10.2402 -10.2402h266.24c5.67969 0 10.2402 4.55957 10.2402 10.2402v286.72c0 5.67969 -4.56055 10.2402 -10.2402 10.2402h-266.24zM142.4 335.36h225.279v-20.4805h-225.279
v20.4805zM142.4 284.16h163.84v-20.4805h-163.84v20.4805zM142.4 232.96h225.279v-20.4795h-225.279v20.4795zM142.4 181.76h163.84v-20.4795h-163.84v20.4795zM142.4 130.56h225.279v-20.4795h-225.279v20.4795zM256 28.1602c16.8398 0 30.7197 -13.8799 30.7197 -30.7197
v-20.4805h-20.4795v20.4805c0 5.67969 -4.56055 10.2393 -10.2402 10.2393s-10.2402 -4.55957 -10.2402 -10.2393v-20.4805h-20.4795v20.4805c0 16.8398 13.8799 30.7197 30.7197 30.7197z" />
    <glyph glyph-name="jdownloader" unicode="&#xf119;" 
d="M229.44 437.76h0.959961c1.08008 0.160156 2.11914 0.160156 3.19922 0h1.91992c25.0801 0 49.1602 -4.2793 71.6807 -11.8398c1.59961 -0.160156 3.12012 -0.719727 4.47949 -1.59961c19.8398 -7.16016 38.2002 -17 55.04 -29.1201
c0.320312 -0.0800781 0.640625 -0.200195 0.959961 -0.320312c1.60059 -0.599609 3.04004 -1.59961 4.16016 -2.87988c0.160156 -0.120117 0.160156 -0.519531 0.320312 -0.639648c18.4795 -14.1602 34.6396 -31.1602 48 -50.2402
c0.240234 -0.320312 0.439453 -0.639648 0.639648 -0.959961c25.1602 -36.3203 40 -80.2002 40 -127.68c0 -34.3604 -7.67969 -66.8408 -21.4395 -96c1.71973 -9.04004 4.15918 -22.2002 4.7998 -25.6006l51.8398 7.67969
c3.83984 0.600586 7.71973 -1.04004 9.95996 -4.23926c2.24023 -3.2002 2.48047 -7.36035 0.599609 -10.8008l-62.7197 -117.119c-1.43945 -2.68066 -3.95996 -4.56055 -6.91992 -5.2002c-2.95996 -0.600586 -6.08008 0.120117 -8.43945 2l-73.9209 58.2402
c-34.5596 -21.6006 -75.3193 -34.2402 -119.04 -34.2402c-12.1992 0 -24.1592 1 -35.8398 2.87988c-25 4 -48.5195 12.1602 -70.0801 23.6797c-0.0800781 0.0400391 -0.239258 -0.0400391 -0.319336 0c-3.68066 -0.0400391 -7.12012 1.91992 -8.95996 5.12012
c-65.9199 39.3203 -110.08 111.36 -110.08 193.601c0 121.92 97.2002 221.199 218.24 224.96h0.319336c0.200195 0.119141 0.44043 0.239258 0.640625 0.319336zM230.72 417.28c-45.04 -1.04004 -86.3594 -16.6807 -119.68 -42.2402l6.40039 1.28027
c0.639648 0.160156 1.2793 0.279297 1.91992 0.319336c1.67969 -0.0400391 3.31934 -0.479492 4.7998 -1.2793l26.2402 -12.1602c2.2793 -1.04004 4.08008 -2.83984 5.11914 -5.12012l9.9209 1.91992c0.839844 0.120117 1.71973 0.120117 2.55957 0l26.8799 -1.91992
c4.52051 -0.320312 8.28027 -3.59961 9.24023 -8.04004s-1.08008 -9 -5.08008 -11.1602l-4.48047 -2.55957c1 -0.160156 1.95996 -0.480469 2.88086 -0.959961l16.96 -8.95996c2.31934 -1.12012 4.15918 -3.04004 5.11914 -5.44043l5.44043 -15.04
c1.67969 -4.83984 -0.519531 -10.2002 -5.12012 -12.4795l-19.2002 -9.28027c2.2002 -2.64062 2.91992 -6.16016 1.95996 -9.44043c-0.959961 -3.2793 -3.51953 -5.83984 -6.75977 -6.87988l-34.2402 -10.8799l-17.9199 -16.6396
c-0.55957 -0.600586 -1.19922 -1.16016 -1.91992 -1.60059l-23.04 -13.4395l-0.319336 -14.4004c-0.240234 -4.24023 -3.08008 -7.87988 -7.12012 -9.16016c-4.08008 -1.2793 -8.48047 0.0800781 -11.1201 3.40039l-16 21.4395l-10.2402 -0.319336l-3.83984 -11.5205
l22.4004 -35.5195l0.319336 -0.640625h0.959961l22.4004 2.24023c1.75977 0.120117 3.51953 -0.200195 5.12012 -0.959961l72.96 -31.6797c3 -1.40039 5.12012 -4.12012 5.75977 -7.36035l1.59961 -7.04004l1.60059 0.959961
c2.87988 1.60059 6.31934 1.7207 9.28027 0.320312l34.2393 -15.04l28.1602 -2.24023c2.24023 2.68066 4.56055 5.28027 6.71973 8c36.7607 46.2002 60.2402 92 64.3203 100.16c-13.8799 55.5996 -28.6396 95.7197 -43.5195 123.521
c-7.48047 14 -14.8408 24.7598 -22.0801 33.5996c0.0800781 -0.639648 0.0800781 -1.28027 0 -1.91992l-0.320312 -9.28027l4.16016 -5.43945c3.39941 -4.28027 2.83984 -10.4805 -1.28027 -14.0801l-30.3994 -26.8799
c-4.04004 -3.64062 -10.2002 -3.52051 -14.0801 0.319336l-11.5205 11.5205c-2.7998 2.87988 -3.67969 7.12012 -2.24023 10.8799l2.24023 5.75977l-12.1602 17.9199c-2.39941 3.60059 -2.2793 8.36035 0.320312 11.8398l9.59961 12.8008
c1.44043 2.0791 3.60059 3.55957 6.08008 4.15918l19.5205 3.84082c0.200195 0.119141 0.439453 0.239258 0.639648 0.319336c2.71973 0.400391 5.48047 -0.280273 7.67969 -1.91992l10.2402 -7.67969c-13.3994 12.5996 -26.1201 18.7598 -38.0801 22.0801zM280.64 412.16
c13.4805 -11.96 27.0801 -28.6797 40 -52.7998c22.9199 -42.7607 44.3203 -108.841 62.7207 -210.561c0.279297 -0.719727 0.519531 -1.47949 0.639648 -2.24023c4.12012 -23.04 8.08008 -47.3594 11.8398 -74.2393c0.759766 -5.44043 -2.91992 -10.5605 -8.32031 -11.5205
l-41.5996 -6.71973l85.7598 -67.2002l47.04 88.3203l-41.2793 -6.08008c-5.44043 -0.759766 -10.5605 2.91992 -11.5205 8.32031c0 0 -19.04 99.7998 -23.04 117.76c-1.2002 5.39941 -2.32031 10.8799 -3.51953 16.3193
c-0.280273 0.720703 -0.520508 1.48047 -0.640625 2.24023c-0.0400391 0.200195 0.0400391 0.44043 0 0.640625c-0.120117 0.399414 -0.239258 0.839844 -0.319336 1.2793c-16.5605 73.4004 -36.7207 146.84 -96 190.08c-7.12012 2.48047 -14.2803 4.7207 -21.7607 6.40039z
M249.92 383.68l-11.2002 -2.23926l-2.87988 -4.16016l10.8799 -16.3203c1.7998 -2.75977 2.16016 -6.2002 0.959961 -9.28027l-1.59961 -4.7998l16 14.4004l-0.959961 1.2793c-1.40039 1.95996 -2.08008 4.32031 -1.91992 6.7207l0.319336 7.35938zM118.4 355.52
l-9.28027 -1.91992c0.479492 -1.55957 0.599609 -3.19922 0.320312 -4.7998l-2.56055 -16.6396c-0.280273 -2.04004 -1.2002 -3.91992 -2.55957 -5.44043l-27.5205 -30.7197l-18.2402 -25.5996l-4.47949 -27.5205v-0.320312l0.320312 -9.59961l2.23926 6.40039
c1.32031 4.04004 5.04004 6.83984 9.28027 7.04004l23.04 0.639648c3.40039 0.120117 6.63965 -1.44043 8.63965 -4.16016l3.52051 -4.7998c0.719727 0.879883 1.59961 1.63965 2.55957 2.24023l27.2002 16l0.639648 0.319336l17.9209 16.96
c1.11914 1 2.39941 1.80078 3.83984 2.24023l17.9199 5.75977c-0.839844 1.91992 -1.04004 4.04004 -0.640625 6.08008c-2.59961 -2.12012 -6.04004 -2.83984 -9.2793 -1.91992l-11.5205 2.87988c-3.91992 0.919922 -6.91992 4.04004 -7.67969 8l-3.2002 20.4805
c-0.55957 3.28027 0.520508 6.59961 2.87988 8.95996l10.8799 10.2402c0.320312 0.239258 0.640625 0.439453 0.959961 0.639648l-14.3994 -2.55957c-4.04004 -0.600586 -8.08008 1.23926 -10.2402 4.71973c-2.16016 3.47949 -2.04004 7.91992 0.320312 11.2803z
M82.5596 348.48c-16.1992 -18.2002 -29.1592 -39.2402 -38.0791 -62.4004l15.3594 21.7598c0.280273 0.360352 0.600586 0.679688 0.959961 0.959961l26.2402 29.7598l1.28027 6.7207zM392 344.32c1.63965 -9.83984 2.40039 -21.1201 1.28027 -33.9199
c6.12012 -16.5605 11.2393 -33.4805 15.6797 -50.5605c2.48047 17.7998 2.04004 32.3203 0.639648 43.5205c-2.31934 18.5596 -7.04004 27.1992 -7.04004 27.1992c-3.35938 4.76074 -6.7998 9.32031 -10.5596 13.7607zM167.04 321.28l-1.28027 -0.640625l-5.75977 -5.43945
l0.639648 -4.48047zM193.28 314.56l-9.91992 -6.0791l-8.95996 -14.7207c0.599609 0.400391 1.23926 0.720703 1.91992 0.959961l26.2393 12.7998l-0.959961 2.88086zM430.72 273.6c-1.08008 -16.4395 -4.2002 -35.6797 -11.2002 -57.5996
c1.24023 -5.55957 2.32031 -11.1602 3.52051 -16.6396c1.63965 -7.40039 5.44043 -26.6406 8.95996 -44.8008c5.44043 18.4004 8.32031 37.7207 8.32031 57.9209c0 21.3994 -3.52051 41.7998 -9.60059 61.1191zM33.5996 243.84
c-1.55957 -10.2402 -2.87988 -20.6396 -2.87988 -31.3594c0 -76.7607 42.2402 -143.48 104.641 -178.561c7.71973 -0.479492 15.3994 0.200195 23.04 1.59961l-9.91992 12.1602c-0.680664 0.879883 -1.24023 1.83984 -1.60059 2.87988l-4.7998 12.4805l-27.2002 14.4004
c-1.12012 0.679688 -2.08008 1.51953 -2.87988 2.55957l-9.28027 11.2002l-0.959961 0.959961l-18.5596 16.6396c-2.7998 2.48047 -4.04004 6.28027 -3.2002 9.91992l7.67969 34.2402l-1.91992 8.95996c-2.7998 -0.240234 -5.59961 0.679688 -7.67969 2.56055
l-1.59961 1.91992l-17.9209 17.9199l-1.59961 1.2793l-17.2803 10.8809c-2.75977 1.87988 -4.43945 5 -4.47949 8.31934zM352.96 196.48c-11.5596 -20.6406 -30.0801 -51.4404 -55.3604 -83.2002c-32.7197 -41.1201 -75.6797 -82.5205 -124.8 -95.6807
c8.87988 -2.87988 17.7998 -5.39941 27.2002 -7.04004c0.320312 -0.0400391 0.639648 0.0400391 0.959961 0c41.04 2.24023 82.8799 36.04 113.6 70.7207c26.4805 29.8799 43.8008 58.04 48.3203 65.5996c-3.24023 17.6006 -6.51953 34.1602 -9.91992 49.6006zM115.2 160
l-8 -0.639648l0.959961 -4.16016c0.320312 -1.48047 0.320312 -3 0 -4.48047l-7.04004 -30.7197l15.3604 -13.7598c0.359375 -0.280273 0.679688 -0.600586 0.959961 -0.959961l8.95996 -10.5605l28.7998 -15.3594c2.08008 -1.24023 3.67969 -3.16016 4.47949 -5.44043
l5.44043 -14.7197l13.4395 -16.3203c0.360352 -0.399414 0.680664 -0.839844 0.959961 -1.28027c28.1201 10.8809 54.7207 32.2803 78.4004 57.2803l-15.04 1.28027c-1.2002 0 -2.39941 0.240234 -3.51953 0.639648l-30.0801 13.4404l-8.95996 -5.44043
c-2.83984 -1.71973 -6.36035 -1.95996 -9.44043 -0.639648c-3.04004 1.35938 -5.24023 4.08008 -5.91992 7.35938l-3.51953 16zM368 117.12c-8.24023 -12.2002 -19.8398 -28.1201 -33.9199 -44.4805l40 6.7207c-1.91992 13.2393 -4.04004 25.5195 -6.08008 37.7598z
M314.88 52.1602c-15.7197 -16 -33.4395 -31.1201 -53.1201 -42.5605c27.1602 3.52051 52.7998 12.2402 75.5205 25.2803l-22.0801 17.2803c-0.0400391 -0.0400391 -0.280273 0.0400391 -0.320312 0z" />
    <glyph glyph-name="forward" unicode="&#xf11c;" 
d="M153.48 407.12c2.7998 0 5.43945 -1.08008 7.35938 -3.08008l204.8 -204.8c4 -4 4 -10.4805 0 -14.4805l-204.8 -204.8c-2.55957 -2.67969 -6.39941 -3.75977 -9.95996 -2.7998c-3.59961 0.919922 -6.39941 3.71973 -7.32031 7.32031
c-0.959961 3.55957 0.120117 7.39941 2.80078 9.95996l197.56 197.56l-197.56 197.56c-3 2.9209 -3.91992 7.32031 -2.36035 11.2002c1.59961 3.83984 5.32031 6.36035 9.48047 6.36035z" />
    <glyph glyph-name="instagram-old" unicode="&#xf106;" 
d="M96 448h320c53.0312 0 96 -42.9688 96 -96v-320c0 -53.0312 -42.9688 -96 -96 -96h-320c-53.0312 0 -96 42.9688 -96 96v320c0 53.0312 42.9688 96 96 96zM96 408.615c-31.2119 0 -56.6152 -25.4033 -56.6152 -56.6152v-81.2305h80.6152
c27.2988 46.9785 77.8662 78.7686 136 78.7686s108.701 -31.79 136 -78.7686h80.6152v81.2305c0 31.2119 -25.3828 56.6152 -56.6152 56.6152h-320zM393.846 388.923h39.3848c10.8506 0 19.6924 -8.8418 19.6924 -19.6924v-39.3848
c0 -10.8496 -8.8418 -19.6914 -19.6924 -19.6914h-39.3848c-10.8496 0 -19.6914 8.8418 -19.6914 19.6914v39.3848c0 10.8506 8.8418 19.6924 19.6914 19.6924zM256 310.154c-34.9707 0 -66.3643 -15.2314 -88 -39.3848
c-0.195312 -0.217773 -0.421875 -0.396484 -0.615234 -0.615234c-3.37109 -3.81934 -6.37012 -8.07422 -9.23047 -12.3086c-0.844727 -1.25195 -1.66504 -2.40625 -2.46191 -3.69141c-3.14648 -5.07617 -6.25488 -10.4541 -8.61523 -16
c-0.249023 -0.589844 -0.375977 -1.25293 -0.615234 -1.84668c-0.818359 -2.01172 -1.75391 -4.08789 -2.46191 -6.15332c-0.332031 -0.975586 -0.308594 -2.09082 -0.615234 -3.07715c-0.25 -0.797852 -0.381836 -1.65723 -0.615234 -2.46191
c-0.835938 -2.91016 -1.84863 -5.61816 -2.46191 -8.61523c-0.585938 -2.80957 -0.849609 -5.73535 -1.23047 -8.61523c-0.134766 -1.04395 -0.508789 -2.02539 -0.615234 -3.07715c-0.0429688 -0.404297 0.0380859 -0.825195 0 -1.23047
c-0.328125 -3.58691 -0.616211 -7.40527 -0.616211 -11.0771c0 -24.4727 7.56641 -46.9893 20.3086 -65.8457c2.12305 -3.14355 4.36035 -6.31348 6.76855 -9.23145c21.6738 -26.2588 54.3789 -43.0771 91.0771 -43.0771c4.07617 0 8.33691 0.212891 12.3076 0.616211
c35.7334 3.62988 66.4229 23.4062 85.5381 51.6924c12.7441 18.8564 20.3086 41.373 20.3086 65.8457c0 4.2041 -0.18457 8.2207 -0.616211 12.3076c-0.337891 3.32812 -0.62207 6.60547 -1.23047 9.84668c-0.12207 0.638672 -0.482422 1.20996 -0.615234 1.8457
c-0.306641 1.49902 -0.868164 2.83008 -1.23047 4.30762c-0.563477 2.26074 -1.15527 4.5625 -1.84668 6.76953c-0.824219 2.65137 -1.45801 5.43164 -2.46094 8c-0.401367 1.02051 -0.802734 2.07031 -1.23145 3.07715c-2.36035 5.54492 -5.46875 10.9229 -8.61523 16
c-0.796875 1.28516 -1.61719 2.43945 -2.46191 3.69141c-2.12305 3.14355 -4.36035 6.31348 -6.76855 9.23145c-0.852539 1.03223 -1.5752 2.07324 -2.46191 3.07715c-0.191406 0.216797 -0.421875 0.399414 -0.615234 0.615234
c-21.6357 24.1533 -53.0293 39.3848 -88 39.3848zM256 267.077c41.4521 0 75.0771 -33.5654 75.0771 -75.0771s-33.625 -75.0771 -75.0771 -75.0771c-41.5117 0 -75.0771 33.585 -75.0771 75.0771c0 14.2969 4.14551 27.4072 11.0771 38.7695
c-1.08301 -3.52539 -1.8457 -7.1582 -1.8457 -11.0771c0 -21.0117 17.1221 -38.1543 38.1533 -38.1543s38.1543 17.1621 38.1543 38.1543c0 21.0508 -17.123 38.1533 -38.1543 38.1533c-3.87891 0 -7.53223 -0.743164 -11.0771 -1.8457
c11.3623 6.89258 24.4727 11.0771 38.7695 11.0771z" />
    <glyph glyph-name="plus-math" unicode="&#xf117;" 
d="M245.76 355.84h20.4805v-153.6h153.6v-20.4805h-153.6v-153.6h-20.4805v153.6h-153.6v20.4805h153.6v153.6z" />
    <glyph glyph-name="more" unicode="&#xf102;" 
d="M59.0771 251.077c32.627 0 59.0771 -26.4502 59.0771 -59.0771s-26.4502 -59.0771 -59.0771 -59.0771c-32.6279 0 -59.0771 26.4502 -59.0771 59.0771s26.4492 59.0771 59.0771 59.0771zM256 251.077c32.627 0 59.0771 -26.4502 59.0771 -59.0771
s-26.4502 -59.0771 -59.0771 -59.0771s-59.0771 26.4502 -59.0771 59.0771s26.4502 59.0771 59.0771 59.0771zM452.923 251.077c32.6279 0 59.0771 -26.4502 59.0771 -59.0771s-26.4492 -59.0771 -59.0771 -59.0771c-32.627 0 -59.0771 26.4502 -59.0771 59.0771
s26.4502 59.0771 59.0771 59.0771z" />
    <glyph glyph-name="icon-2" unicode="&#xf12a;" 
d="M256 427.52c129.953 0 235.52 -105.566 235.52 -235.52s-105.566 -235.52 -235.52 -235.52s-235.52 105.566 -235.52 235.52s105.566 235.52 235.52 235.52zM256 407.04c-118.885 0 -215.04 -96.1553 -215.04 -215.04s96.1553 -215.04 215.04 -215.04
s215.04 96.1553 215.04 215.04s-96.1553 215.04 -215.04 215.04zM162.82 314.88h24.5801l68.5996 -125.96l69.6396 125.96h23.54l-72.6992 -125.96h37.8799v-15.3604h-45.04l-2.06055 -3.05957v-25.5996h47.1006v-15.3604h-47.1006v-60.4199h-21.5v60.4199h-46.0801v15.3604
h46.0801v25.5996l-2.04004 3.05957h-44.04v15.3604h35.8398z" />
    <glyph glyph-name="shopping-cart" unicode="&#xf121;" 
d="M18.5596 427.52h0.959961h0.960938h68.1592c15.8408 0 28.8408 -3.83984 38.0801 -12.1592c9.24023 -8.32031 14.3203 -19.7607 18.2402 -32.96v-0.640625l21.7598 -87.3594h314.561c3.35938 0.0400391 6.51953 -1.60059 8.43945 -4.36035
s2.36035 -6.28027 1.16016 -9.40039l-73.5996 -194.56c-1.44043 -4.04004 -5.32031 -6.71973 -9.60059 -6.71973h-187.84l7.04004 -27.8408v-0.319336c3.04004 -11.4404 5.63965 -20.04 9.91992 -24.96c4.32031 -4.95996 10.7598 -8.32031 26.5605 -8.32031h156.479
c3.36035 0 6.48047 -1.63965 8.40039 -4.40039c1.87988 -2.71973 2.35938 -6.23926 1.2002 -9.35938c6.59961 -7.28027 10.8799 -16.6797 10.8799 -27.2002c0 -22.5195 -18.4404 -40.96 -40.96 -40.96c-22.5205 0 -40.96 18.4404 -40.96 40.96
c0 7.52051 2.19922 14.4004 5.75977 20.4805h-62.7197c3.55957 -6.08008 5.75977 -12.96 5.75977 -20.4805c0 -22.5195 -18.4404 -40.96 -40.96 -40.96c-22.5205 0 -40.96 18.4404 -40.96 40.96c0 9.95996 3.91992 18.7998 9.91992 25.9199
c-5.40039 2.52051 -9.87988 5.83984 -13.4404 9.91992c-8.55957 9.7998 -11.6396 21.8799 -14.7197 33.6006l-81.9199 330.56c-3.40039 11.3203 -7.32031 18.6797 -12.1602 23.04c-4.91992 4.40039 -11.5596 7.04004 -24.3203 7.04004h-47.6797
c0 -11.3203 -9.16016 -20.4805 -20.4795 -20.4805c-11.3203 0 -20.4805 9.16016 -20.4805 20.4805c0 10.3203 7.63965 18.7598 17.5996 20.1602c0.320312 0.120117 0.640625 0.240234 0.959961 0.319336zM171.84 273.92l43.2002 -174.08h185.6l65.9199 174.08h-294.72z
M266.24 -2.55957c-11.4404 0 -20.4805 -9.04004 -20.4805 -20.4805s9.04004 -20.4795 20.4805 -20.4795c11.4395 0 20.4795 9.03906 20.4795 20.4795s-9.04004 20.4805 -20.4795 20.4805zM399.36 -2.55957c-11.4404 0 -20.4805 -9.04004 -20.4805 -20.4805
s9.04004 -20.4795 20.4805 -20.4795c11.4395 0 20.4795 9.03906 20.4795 20.4795s-9.04004 20.4805 -20.4795 20.4805z" />
    <glyph glyph-name="open-book" unicode="&#xf126;" 
d="M61.4404 407.04h10.2393c100.761 0 177.761 -37.0801 184.32 -40.3203c6.55957 3.24023 83.5596 40.3203 184.32 40.3203h10.2393v-358.4h-10.2393c-99.6807 0 -179.721 -39.8799 -179.721 -39.8799l-4.59961 -2.2793l-4.59961 2.2793s-80.04 39.8799 -179.721 39.8799
h-10.2393v358.4zM81.9199 385.64v-317.439c80.7598 -2.16016 142.04 -25.5605 163.84 -34.96v315.88c-13.7998 6.24023 -79.3994 34.1201 -163.84 36.5195zM430.08 385.64c-84.4404 -2.39941 -150.04 -30.2793 -163.84 -36.5195v-315.88
c21.7998 9.39941 83.0801 32.7998 163.84 34.96v317.439zM20.4805 355.84h20.4795v-328.399c124.92 -2.12012 209.32 -37.2803 215.04 -39.7607c5.71973 2.48047 90.1201 37.6406 215.04 39.7607v328.399h20.4795v-348.16h-10.2393
c-131 0 -221.12 -40.0801 -221.12 -40.0801l-4.16016 -1.83984l-4.16016 1.83984s-90.1201 40.0801 -221.12 40.0801h-10.2393v348.16z" />
    <glyph glyph-name="receive-cash" unicode="&#xf12e;" 
d="M327.68 396.8c33.8008 0 61.3604 -27.6396 62.4004 -61.4395c0 -27.6406 -17.3604 -50.04 -41.9199 -58.2402c-3.08008 12.2803 -8.2002 24.3203 -15.3604 34.5596h3.2002v46.0801h-12.4805l-15.3594 -15.3594h12.4795v-17.2803
c-14.3193 12.2803 -32.96 20.4795 -53.4395 20.4795c5.12012 28.6807 29.7598 51.2002 60.4795 51.2002zM266.24 335.36c39.9199 0 71.6797 -31.7607 71.6797 -71.6807s-31.7598 -71.6797 -71.6797 -71.6797s-71.6807 31.7598 -71.6807 71.6797
s31.7607 71.6807 71.6807 71.6807zM261.12 291.2l-18.5605 -18.2402h14.4004v-36.7998h18.5596v55.04h-14.3994zM137.28 192c49.1602 0 67.3994 -20.5996 79.6797 -33.9199c4.08008 -4.08008 7.16016 -6.91992 10.2402 -8.95996
c4.08008 -2.04004 11.5195 -5.24023 21.7598 -8.32031c18.4404 -5.12012 40.8799 -9.2002 57.2803 -10.2402c20.4795 -1.04004 30.7197 -13.3193 30.7197 -25.5996c0 -3.08008 0.0800781 -5.24023 -0.959961 -8.32031v-0.959961
c0 -1.04004 -1.28027 -0.879883 -1.28027 -1.91992c-2.04004 -4.08008 -4.87988 -7.16016 -8.95996 -10.2402c-4.08008 -3.0791 -10.3594 -5.11914 -18.5596 -5.11914h-58.2402c-24.5596 0 -58.3604 9.19922 -61.4404 10.2393h-1.2793
c-3.08008 1.04004 -5.04004 -0.120117 -6.08008 -3.19922c-1.04004 -2.04004 0.120117 -5.04004 3.2002 -6.08008c1.04004 0 34.7598 -10.2402 62.3994 -10.2402h61.4404c10.2402 0 25.4795 -0.959961 42.8799 9.28027l109.76 73.5996
c24.5605 15.3604 52.2402 8.2002 51.2002 -20.4805c0 -10.2393 -10.1602 -23.5996 -26.5596 -34.8799c-13.3203 -9.19922 -163.08 -106.359 -175.36 -114.56s-25.6006 -16.3203 -46.0801 -16.3203c-11.2803 0 -24.5596 3 -40.96 11.2002
c-10.2402 5.12012 -44.7998 23.4805 -70.4004 36.7998l-21.7598 11.2002c-16.4004 8.2002 -21.3203 7.24023 -33.5996 -0.959961l-27.8398 -18.2402c-2.04004 -1.04004 -4.9209 -2.31934 -8 -1.2793c-2.04004 1.03906 -5.04004 3.31934 -6.08008 6.39941l-54.4004 120.64
c-2.04004 5.12012 0 11.4004 5.12012 13.4404c83.96 37.8799 106.56 47.04 132.16 47.04zM359.36 192c18.4395 0 33.9199 -10.2402 33.9199 -10.2402l-66.5605 -45.1201c-5.12012 2.04004 -12.3594 4.16016 -19.5195 4.16016c-10.2402 0 -24.4404 2.04004 -37.7598 5.12012
c18.4395 11.2803 49.1592 30.7998 56.3193 34.8799c10.2402 7.16016 22.3203 11.2002 33.6006 11.2002zM426.88 180.8c10.2402 0 26.6797 -5.24023 29.7598 -18.5596l-112.64 -74.5605l-0.959961 -1.2793l-0.959961 -0.959961
c4.08008 6.15918 6.08008 13.3594 6.08008 19.5195c0 9.2002 -3.95996 18.4404 -12.1602 25.5996l51.2002 34.8809c17.3994 11.2793 29.4395 15.3594 39.6797 15.3594z" />
    <glyph glyph-name="company" unicode="&#xf118;" 
d="M81.9199 427.52h184.32v-40.96h40.96v-81.9199h163.84v-348.159h-430.08v430.079h40.96v40.96zM102.4 407.04v-40.96h-40.96v-389.12h92.1592v71.6797h40.96v-71.6797h92.1602v389.12h-40.96v40.96h-143.359zM102.4 345.6h20.4795v-20.4795h-20.4795v20.4795z
M143.36 345.6h20.4795v-20.4795h-20.4795v20.4795zM184.32 345.6h20.4795v-20.4795h-20.4795v20.4795zM225.28 345.6h20.4795v-20.4795h-20.4795v20.4795zM102.4 294.4h20.4795v-40.96h-20.4795v40.96zM143.36 294.4h20.4795v-40.96h-20.4795v40.96zM184.32 294.4h20.4795
v-40.96h-20.4795v40.96zM225.28 294.4h20.4795v-40.96h-20.4795v40.96zM307.2 284.16v-307.2h143.359v307.2h-143.359zM327.68 263.68h20.4805v-20.4795h-20.4805v20.4795zM368.64 263.68h20.4805v-20.4795h-20.4805v20.4795zM409.6 263.68h20.4805v-20.4795h-20.4805
v20.4795zM102.4 232.96h20.4795v-40.96h-20.4795v40.96zM143.36 232.96h20.4795v-40.96h-20.4795v40.96zM184.32 232.96h20.4795v-40.96h-20.4795v40.96zM225.28 232.96h20.4795v-40.96h-20.4795v40.96zM327.68 222.72h20.4805v-20.4795h-20.4805v20.4795zM368.64 222.72
h20.4805v-20.4795h-20.4805v20.4795zM409.6 222.72h20.4805v-20.4795h-20.4805v20.4795zM327.68 181.76h20.4805v-20.4795h-20.4805v20.4795zM368.64 181.76h20.4805v-20.4795h-20.4805v20.4795zM409.6 181.76h20.4805v-20.4795h-20.4805v20.4795zM102.4 171.52h20.4795
v-40.96h-20.4795v40.96zM143.36 171.52h20.4795v-40.96h-20.4795v40.96zM184.32 171.52h20.4795v-40.96h-20.4795v40.96zM225.28 171.52h20.4795v-40.96h-20.4795v40.96zM327.68 140.8h20.4805v-20.4795h-20.4805v20.4795zM368.64 140.8h20.4805v-20.4795h-20.4805v20.4795z
M409.6 140.8h20.4805v-20.4795h-20.4805v20.4795zM102.4 110.08h20.4795v-40.96h-20.4795v40.96zM143.36 110.08h20.4795v-40.96h-20.4795v40.96zM184.32 110.08h20.4795v-40.96h-20.4795v40.96zM225.28 110.08h20.4795v-40.96h-20.4795v40.96zM327.68 99.8398h20.4805
v-20.4795h-20.4805v20.4795zM368.64 99.8398h20.4805v-20.4795h-20.4805v20.4795zM409.6 99.8398h20.4805v-20.4795h-20.4805v20.4795zM327.68 58.8799h20.4805v-20.4795h-20.4805v20.4795zM368.64 58.8799h20.4805v-20.4795h-20.4805v20.4795zM409.6 58.8799h20.4805
v-20.4795h-20.4805v20.4795zM102.4 48.6396h20.4795v-51.1992h-20.4795v51.1992zM225.28 48.6396h20.4795v-51.1992h-20.4795v51.1992zM327.68 17.9199h20.4805v-20.4795h-20.4805v20.4795zM368.64 17.9199h20.4805v-20.4795h-20.4805v20.4795zM409.6 17.9199h20.4805
v-20.4795h-20.4805v20.4795z" />
    <glyph glyph-name="facebook" unicode="&#xf105;" 
d="M465.066 448c25.6006 0 46.9336 -21.333 46.9336 -46.9336v-418.133c0 -25.6006 -21.333 -46.9336 -46.9336 -46.9336h-123.733v213.333h74.667l10.667 64h-85.334v49.0674c0 19.1992 17.0674 36.2666 36.2666 36.2666h27.7334v64h-64c-64 0 -85.333 -32 -85.333 -85.334
v-64h-64v-64h64v-213.333h-209.066c-25.6006 0 -46.9336 21.333 -46.9336 46.9336v418.133c0 25.6006 21.333 46.9336 46.9336 46.9336h418.133z" />
    <glyph glyph-name="response" unicode="&#xf10b;" 
d="M256 407.04c129.751 0 235.51 -90.9131 235.5 -204.72c0 -113.818 -105.769 -204.74 -235.52 -204.74c-20.2861 0 -39.6875 2.43652 -58.5801 6.86035c-5.67383 -6.63574 -42.3545 -47.96 -105.74 -47.96h-18.2998l10.4795 15
c14.7354 21.125 21.9863 39.8574 25.5801 53.1592c2.89844 10.7314 2.72754 14.3086 2.82031 16.5205c-55.583 37.5703 -91.7598 95.0615 -91.7598 161.14c0 113.808 105.769 204.74 235.52 204.74zM256 386.56c-118.569 0 -215.04 -82.6582 -215.04 -184.26
c0 -56.0742 30.1475 -108.627 82.7402 -144.18l9.47949 -6.40039l-0.479492 -11.4199c-0.143555 -4.84375 -0.663086 -10.4111 -3.52051 -21c-3.67578 -13.6289 -9.26562 -27.207 -16.6797 -40.5596c38.7998 6.75781 62.3252 30.8076 69.3398 39l8.10059 9.45996
l12.1396 -2.83984c18.1455 -4.25 35.7852 -6.32031 53.9199 -6.32031c118.569 0 215.04 82.6592 215.04 184.26c0 101.602 -96.4707 184.26 -215.04 184.26zM225.08 294.36l0.301758 0.00390625c5.65332 0 10.2412 -4.58789 10.2412 -10.2412
c0 -2.38867 -1.39062 -5.67773 -3.10352 -7.34277l-43.96 -43.96h87.9209c17.9326 0 33.7031 -5.61914 44.7197 -16.6006c11.0156 -10.9805 16.7197 -26.7842 16.7197 -44.8398v-71.54l0.000976562 -0.144531c0 -5.65332 -4.58789 -10.2412 -10.2412 -10.2412
c-5.65234 0 -10.2402 4.58789 -10.2402 10.2412l0.000976562 0.144531v71.54c0 13.8936 -4.04688 23.708 -10.7002 30.3398s-16.4697 10.6201 -30.2598 10.6201h-87.9209l43.96 -43.96c1.73828 -1.66895 3.14844 -4.97754 3.14844 -7.3877
c0 -5.65234 -4.58789 -10.2402 -10.2402 -10.2402c-2.40918 0 -5.71875 1.41016 -7.3877 3.14844l-68.6797 68.6797l68.6797 68.6797c1.59668 1.64355 4.75 3.03223 7.04004 3.10059z" />
    <glyph glyph-name="icon" unicode="&#xf129;" 
d="M256 427.52c129.874 0 235.52 -105.656 235.52 -235.52s-105.646 -235.52 -235.52 -235.52s-235.52 105.656 -235.52 235.52s105.646 235.52 235.52 235.52zM314.368 188.928h-37.8877l72.7031 125.952h-23.5518l-69.6318 -125.952l-68.6084 125.952h-24.5752
l72.7031 -125.952h-35.8398v-15.3594h44.0322l2.04785 -3.07227v-25.5996h-46.0801v-15.3604h46.0801v-60.416h21.5039v60.416h47.1045v15.3604h-47.1045v25.5996l2.04883 3.07227h45.0557v15.3594z" />
    <glyph glyph-name="search" unicode="&#xf11f;" 
d="M215.04 417.28c96.04 0 174.08 -78.04 174.08 -174.08c0 -43.2402 -15.7598 -82.7998 -41.9199 -113.28l133.12 -133.439l-28.8008 -28.8008l-134.72 134.4c-28.6396 -20.7197 -63.7598 -32.96 -101.76 -32.96c-96.04 0 -174.08 78.04 -174.08 174.08
s78.04 174.08 174.08 174.08zM215.04 396.8c-84.96 0 -153.6 -68.6396 -153.6 -153.6s68.6396 -153.601 153.6 -153.601s153.6 68.6406 153.6 153.601s-68.6396 153.6 -153.6 153.6z" />
    <glyph glyph-name="twitter-2" unicode="&#xf112;" 
d="M350.4 392c29.2393 0 55.3594 -12.4805 75.1992 -31.04c20.4404 4.44043 39.8008 11.7197 57.2803 22.0801c3.63965 2.2002 8.28027 1.87988 11.6006 -0.719727c3.31934 -2.64062 4.71973 -7.08008 3.43945 -11.1201c-3.75977 -11.7998 -10 -22.2803 -17.2803 -32
c5.52051 1.87988 11.6807 2.12012 16.96 4.47949c4.16016 1.95996 9.16016 0.879883 12.1201 -2.63965c3 -3.52051 3.28027 -8.59961 0.680664 -12.4004c-13.1201 -19.6797 -29.8809 -36.5195 -48.6406 -50.8799c0.0800781 -2.87988 0.320312 -5.71973 0.320312 -8.63965
c0 -69.2002 -26.2002 -143.28 -76.4805 -200.32c-50.2793 -57.04 -125.239 -96.96 -220.8 -96.96c-58.96 0 -113.8 17.4004 -160 47.04c-4.12012 2.52051 -5.91992 7.60059 -4.28027 12.1602c1.60059 4.55957 6.2002 7.36035 11 6.71973
c7.44043 -0.879883 14.9209 -1.2793 22.7207 -1.2793c36.04 0 69.4395 10.0791 98.2402 27.1992c-36.1602 9.91992 -65.3604 37.0801 -76.8008 72.6406c-1.04004 3.39941 -0.279297 7.12012 2.08008 9.7998c2.36035 2.67969 5.91992 3.91992 9.44043 3.32031
c0.319336 -0.0800781 0.639648 0.0400391 0.959961 0c-28.7998 20.0791 -48.3203 52.8398 -48.3203 90.5596v1.28027c0.0400391 3.55957 1.91992 6.87988 5 8.71973s6.87988 1.91992 10.04 0.240234c2.48047 -1.40039 5.36035 -2.04004 8 -3.2002
c-13.5996 18.4795 -22.3994 41 -22.3994 65.5996c0 20.3203 5.47949 39.2402 15.0391 55.6807c1.68066 2.95996 4.7207 4.91992 8.12012 5.16016c3.44043 0.239258 6.7207 -1.2002 8.84082 -3.88086c45.4795 -55.7998 112.439 -92.2793 188.159 -99.5195
c-0.359375 3.59961 -1.2793 7.2002 -1.2793 10.8799c0 61.2402 49.7998 111.04 111.04 111.04zM350.4 371.52c-50.1602 0 -90.5605 -40.3994 -90.5605 -90.5596c0 -7.12012 1 -14.1602 2.56055 -20.7998c0.719727 -3.12012 -0.0800781 -6.40039 -2.16016 -8.87988
c-2.08008 -2.44043 -5.2002 -3.76074 -8.40039 -3.60059c-80.96 4.08008 -152.64 41.4004 -203.84 97.6006c-4 -10.2402 -7.04004 -20.96 -7.04004 -32.6406c0 -31.5195 16 -59.2393 40.3203 -75.5195c3.95996 -2.48047 5.71973 -7.36035 4.2793 -11.7998
c-1.43945 -4.44043 -5.67969 -7.36035 -10.3594 -7.08008c-11.4404 0.359375 -22 3.16016 -32.3203 6.71973c6.32031 -36.8799 33.6396 -66.5596 70.0801 -73.9199c4.55957 -1 7.87988 -5 8.04004 -9.67969c0.160156 -4.68066 -2.91992 -8.84082 -7.40039 -10.1602
c-9.31934 -2.56055 -19.3193 -3.83984 -29.4395 -3.83984h-1.60059c15.0801 -27.7607 43.3604 -47.4004 77.1201 -48c4.28027 -0.120117 8.04004 -2.91992 9.40039 -7s0.0400391 -8.56055 -3.32031 -11.2402c-32.1602 -25.2402 -72 -40.5205 -115.2 -43.8398
c34.8408 -15.9199 73.4004 -24.96 114.24 -24.96c89.9199 0 158.641 37.1602 205.44 90.2393c46.7998 53.0801 71.3594 122.561 71.3594 186.561c0 4.2002 -0.15918 8.32031 -0.319336 12.4795c-0.240234 3.52051 1.31934 6.88086 4.16016 8.95996
c10.4395 7.56055 20.04 16.1201 28.7998 25.6006c-9.75977 -2.60059 -18.8799 -6.75977 -29.1201 -8c-5.08008 -1.12012 -10.2002 1.71973 -11.8799 6.59961c-1.7207 4.91992 0.479492 10.3203 5.16016 12.6006c10.3193 6.19922 19.1191 14.3994 26.2393 24
c-12.3594 -5 -25.04 -8.87988 -38.3994 -11.5205c-3.48047 -0.759766 -7.12012 0.320312 -9.60059 2.87988c-16.5195 17.6406 -40.1201 28.7998 -66.2393 28.7998z" />
    <glyph glyph-name="gift" unicode="&#xf11e;" 
d="M126.08 437.76c20.4395 0 36.96 -8.63965 49.2803 -20.4795c12.3193 -11.8398 21.1592 -26.7607 29.4395 -40.96c8.28027 -14.2002 16.0801 -27.8398 24.3203 -37.1201s15.7598 -14.0801 26.8799 -14.0801s18.6396 4.7998 26.8799 14.0801s16.04 22.9199 24.3203 37.1201
c8.28027 14.1992 17.1201 29.1201 29.4395 40.96c12.3203 11.8398 28.8408 20.4795 49.2803 20.4795c19.7598 0 34.4805 -6.59961 43.2002 -16.96c8.71973 -10.3594 11.2002 -23.2402 11.2002 -34.2402c0 -26.1592 -14.1602 -47.3994 -33.6006 -61.1191
c-6 -4.24023 -12.3594 -7.60059 -19.2002 -10.5605h114.24v-112.64h-20.4795v-256h-450.561v256h-20.4795v112.64h114.24c-6.84082 2.95996 -13.2002 6.32031 -19.2002 10.5605c-19.4404 13.7197 -33.6006 34.96 -33.6006 61.1191c0 11 2.48047 23.8809 11.2002 34.2402
c8.71973 10.3604 23.4404 16.96 43.2002 16.96zM126.08 417.28c-15.4805 0 -22.96 -4.48047 -27.5205 -9.91992c-4.55957 -5.44043 -6.39941 -13.0801 -6.39941 -20.8008c0 -19.0791 9.32031 -33.6797 24.6396 -44.4795c15.3203 -10.7998 36.6406 -16.96 57.2803 -16.96
h40.3203c-0.200195 0.240234 -0.44043 0.399414 -0.640625 0.639648c-10.4795 11.8398 -18.4395 26.3604 -26.5596 40.3203s-16.6006 27.2002 -26.2402 36.4795c-9.63965 9.28027 -19.8799 14.7207 -34.8799 14.7207zM385.92 417.28
c-15 0 -25.2402 -5.44043 -34.8799 -14.7207c-9.63965 -9.2793 -18.1201 -22.5195 -26.2402 -36.4795s-16.0801 -28.4805 -26.5596 -40.3203c-0.200195 -0.240234 -0.44043 -0.399414 -0.640625 -0.639648h40.3203c20.6396 0 41.96 6.16016 57.2803 16.96
c15.3193 10.7998 24.6396 25.4004 24.6396 44.4795c0 7.7207 -1.83984 15.3604 -6.39941 20.8008c-4.56055 5.43945 -12.04 9.91992 -27.5205 9.91992zM30.7197 294.4v-71.6807h163.84v71.6807h-163.84zM215.04 294.4v-79.6807v-0.959961
c0.0400391 -0.439453 0.0400391 -0.839844 0 -1.2793c0.0800781 -0.640625 0.0800781 -1.28027 0 -1.9209v-243.84h81.9199v243.521c-0.0800781 0.759766 -0.0800781 1.47949 0 2.24023v0.959961v0.959961v80h-81.9199zM317.44 294.4v-71.6807h163.84v71.6807h-163.84z
M51.2002 202.24v-235.521h143.359v235.521h-143.359zM317.44 202.24v-235.521h143.359v235.521h-143.359z" />
    <glyph glyph-name="settings" unicode="&#xf109;" 
d="M211 400h13h64h13l2.5 -13l9.5 -47.5c15.2207 -5.98438 29.0215 -14.4512 41.5 -24.5l46.5 16l12.5 4l6.5 -11.5l32 -55l6.5 -11.5l-9.5 -8.5l-36 -31.5c1.33691 -8.2041 3 -16.3457 3 -25s-1.66406 -16.792 -3 -25l36 -31.5l9.5 -8.5l-6.5 -11.5l-32 -55l-6.5 -11.5
l-12.5 4l-46.5 16c-12.4746 -10.0479 -26.2725 -18.5146 -41.5 -24.5l-9.5 -47.5l-2.5 -13h-13h-64h-13l-2.5 13l-9.5 47.5c-15.2207 5.98438 -29.0215 14.4512 -41.5 24.5l-46.5 -16l-12.5 -4l-6.5 11.5l-32 55l-6.5 11.5l9.5 8.5l36 31.5
c-1.33691 8.2041 -3 16.3457 -3 25s1.66309 16.7959 3 25l-36 31.5l-9.5 8.5l6.5 11.5l32 55l6.5 11.5l12.5 -4l46.5 -16c12.4746 10.0479 26.2725 18.5146 41.5 24.5l9.5 47.5zM237 368l-8 -41.5l-2 -9.5l-9 -3c-18.21 -5.67773 -34.6963 -15.2822 -48.5 -28l-7 -6.5l-9 3
l-40.5 14l-19 -32.5l32 -28.5l7.5 -6l-2.5 -9.5c-2.04102 -9.12695 -3 -18.4443 -3 -28s0.958984 -18.873 3 -28l2.5 -9.5l-7.5 -6l-32 -28.5l19 -32.5l40.5 14l9 3l7 -6.5c13.7998 -12.7139 30.3027 -22.3213 48.5 -28l9 -3l2 -9.5l8 -41.5h38l8 41.5l2 9.5l9 3
c18.21 5.67871 34.6963 15.2822 48.5 28l7 6.5l9 -3l40.5 -14l19 32.5l-32 28.5l-7 6l2 9.5c2.04297 9.14844 3 18.4443 3 28s-0.958984 18.873 -3 28l-2.5 9.5l7.5 6l32 28.5l-19 32.5l-40.5 -14l-9 -3l-7 6.5c-13.7998 12.7139 -30.3027 22.3213 -48.5 28l-9 3l-2 9.5
l-8 41.5h-38zM256 272c43.9932 0 80 -36.0068 80 -80s-36.0068 -80 -80 -80s-80 36.0068 -80 80s36.0068 80 80 80zM256 240c-26.6992 0 -48 -21.3008 -48 -48s21.3008 -48 48 -48s48 21.3008 48 48s-21.3008 48 -48 48z" />
    <glyph glyph-name="add-shopping-cart" unicode="&#xf12d;" 
d="M18.5596 427.52h0.959961h0.960938h68.1592c15.8799 0 28.8008 -3.83984 38.0801 -12.1592c9.28027 -8.32031 14.3203 -19.7607 18.2402 -32.96v-0.640625l21.7598 -87.3594h314.561c3.35938 0 6.39941 -1.7207 8.31934 -4.48047s2.48047 -6.12012 1.28027 -9.28027
l-73.5996 -194.56c-1.52051 -4 -5.36035 -6.71973 -9.60059 -6.71973h-187.84l7.04004 -27.8408v-0.319336c3.04004 -11.4404 5.95996 -20.0801 10.2402 -24.96c4.32031 -4.95996 10.4795 -8.32031 26.2402 -8.32031h156.479c3.36035 0 6.48047 -1.63965 8.40039 -4.40039
c1.87988 -2.71973 2.35938 -6.23926 1.2002 -9.35938c6.59961 -7.28027 10.8799 -16.6797 10.8799 -27.2002c0 -22.5195 -18.4404 -40.96 -40.96 -40.96c-22.5205 0 -40.96 18.4404 -40.96 40.96c0 7.52051 2.19922 14.4004 5.75977 20.4805h-62.7197
c3.55957 -6.08008 5.75977 -12.96 5.75977 -20.4805c0 -22.5195 -18.4404 -40.96 -40.96 -40.96c-22.5205 0 -40.96 18.4404 -40.96 40.96c0 9.87988 3.67969 18.7998 9.59961 25.9199c-5.39941 2.52051 -9.91992 5.83984 -13.4395 9.91992
c-8.56055 9.83984 -11.3203 21.8799 -14.4004 33.6006l-81.9199 330.239v0.320312c-3.40039 11.4004 -7.32031 18.6797 -12.1602 23.04c-4.91992 4.40039 -11.5596 7.04004 -24.3203 7.04004h-47.6797c0 -11.3203 -9.16016 -20.4805 -20.4795 -20.4805
c-11.3203 0 -20.4805 9.16016 -20.4805 20.4805c0 10.3203 7.63965 18.7598 17.5996 20.1602c0.320312 0.120117 0.640625 0.240234 0.959961 0.319336zM317.44 253.44c-5.68066 0 -10.2402 -4.60059 -10.2402 -10.2402v-40.96h-40.96
c-5.64062 0 -10.2402 -4.60059 -10.2402 -10.2402s4.59961 -10.2402 10.2402 -10.2402h40.96v-40.96c0 -5.67969 4.55957 -10.2402 10.2402 -10.2402c5.67969 0 10.2393 4.56055 10.2393 10.2402v40.96h40.96c5.68066 0 10.2402 4.60059 10.2402 10.2402
s-4.55957 10.2402 -10.2402 10.2402h-40.96v40.96c0 5.63965 -4.55957 10.2402 -10.2393 10.2402zM266.24 -2.55957c-11.4404 0 -20.4805 -9.04004 -20.4805 -20.4805s9.04004 -20.4795 20.4805 -20.4795c11.4395 0 20.4795 9.03906 20.4795 20.4795
s-9.04004 20.4805 -20.4795 20.4805zM399.36 -2.55957c-11.4404 0 -20.4805 -9.04004 -20.4805 -20.4805s9.04004 -20.4795 20.4805 -20.4795c11.4395 0 20.4795 9.03906 20.4795 20.4795s-9.04004 20.4805 -20.4795 20.4805z" />
    <glyph glyph-name="fairytale" unicode="&#xf100;" 
d="M256 396.8c22.5 0 40.96 -18.46 40.96 -40.96c0 -14.4805 -7.75195 -27.2695 -19.2002 -34.5596l71.04 -163.84l90.2402 81.2793c-5.47656 6.96777 -8.95996 15.4785 -8.95996 24.96c0 22.501 18.46 40.96 40.96 40.96s40.96 -18.459 40.96 -40.96
c0 -21.5273 -16.9131 -39.1377 -38.0801 -40.6396l-32.3203 -133.44h-371.199l-32.6406 133.44c-21.0195 1.65527 -37.7598 19.2197 -37.7598 40.6396c0 22.501 18.46 40.96 40.96 40.96s40.96 -18.459 40.96 -40.96c0 -9.48145 -3.4834 -17.9922 -8.95996 -24.96
l90.2402 -81.5996l71.04 164.16c-11.4482 7.29004 -19.2002 20.0791 -19.2002 34.5596c0 22.5 18.46 40.96 40.96 40.96zM256 376.32c-11.4316 0 -20.4805 -9.04785 -20.4805 -20.4805c0 -11.4316 9.04883 -20.4795 20.4805 -20.4795s20.4805 9.04785 20.4805 20.4795
c0 11.4326 -9.04883 20.4805 -20.4805 20.4805zM40.96 284.16c-11.4316 0 -20.4795 -9.04785 -20.4795 -20.4805c0 -11.4316 9.04785 -20.4795 20.4795 -20.4795s20.4805 9.04785 20.4805 20.4795c0 11.4326 -9.04883 20.4805 -20.4805 20.4805zM471.04 284.16
c-11.4326 0 -20.4805 -9.04785 -20.4805 -20.4805c0 -11.4316 9.04785 -20.4795 20.4805 -20.4795c11.4316 0 20.4795 9.04785 20.4795 20.4795c0 11.4326 -9.04785 20.4805 -20.4795 20.4805zM71.6797 69.1201h368.641v-71.6797
c0 -5.66309 -4.57715 -10.2402 -10.2402 -10.2402h-348.16c-5.65234 0 -10.2402 4.57715 -10.2402 10.2402v71.6797z" />
    <glyph glyph-name="shipped" unicode="&#xf11b;" 
d="M28.7998 366.08h258.88c16.4004 0 29.7607 -13.3604 29.7607 -29.7598v-43.8398c3.19922 1.23926 6.55957 1.91992 10.2393 1.91992h81.9199c20.2002 0 34.7607 -14.8809 43.8408 -26.2402v-0.320312h0.319336l41.9199 -56.3203v-0.319336s4.08008 -5.75977 8 -13.7598
s8.32031 -18.5605 8.32031 -30.0801v-98.2402c0 -8.52051 -3.83984 -16 -9.28027 -21.4404c-5.43945 -5.43945 -12.9199 -9.2793 -21.4395 -9.2793h-11.2002c-4.87988 -29.04 -30.1201 -51.2002 -60.4805 -51.2002c-30.3594 0 -55.5996 22.1602 -60.4795 51.2002h-155.521
c-4.87988 -29.04 -30.1191 -51.2002 -60.4795 -51.2002s-55.6006 22.1602 -60.4805 51.2002h-41.9199c-16.8398 0 -30.7197 13.8799 -30.7197 30.7197v268.16c0 15.7197 13.0801 28.7998 28.7998 28.7998zM28.7998 345.6c-4.75977 0 -8.31934 -3.55957 -8.31934 -8.31934
v-268.16c0 -5.67969 4.55957 -10.2402 10.2393 -10.2402h41.9199c4.87988 29.04 30.1201 51.2002 60.4805 51.2002s55.5996 -22.1602 60.4795 -51.2002h103.36v277.44c0 4.08008 -5.2002 9.2793 -9.28027 9.2793h-258.88zM234.88 298.56l15.04 -13.7598l-6.71973 -7.67969
l-90.2402 -98.2402l-6.71973 -7.36035l-7.68066 6.7207l-53.1191 47.04l-7.68066 6.71973l13.4404 15.3604l53.7598 -47.04l82.8799 90.8799zM327.68 273.92c-1.71973 0 -4.47949 -1.28027 -6.71973 -3.51953c-2.24023 -2.24023 -3.51953 -5 -3.51953 -6.7207v-204.8
h31.6797c4.87988 29.04 30.1201 51.2002 60.4795 51.2002c30.3604 0 55.6006 -22.1602 60.4805 -51.2002h11.2002c1.71973 0 4.47949 1.28027 6.71973 3.52051c2.24023 2.23926 3.51953 5 3.51953 6.71973v81.9199h-92.1592c-8.52051 0 -16 3.83984 -21.4404 9.28027
c-5.43945 5.43945 -9.28027 12.9199 -9.28027 21.4395v92.1602h-40.96zM389.12 273.92v-92.1602c0 -1.71973 1.28027 -4.47949 3.51953 -6.71973c2.24023 -2.24023 5 -3.52051 6.7207 -3.52051h90.8799c-0.839844 5.40039 -2.2002 11.6807 -4.7998 16.9609
c-3.12012 6.35938 -5.88086 10.2793 -6.08008 10.5596l-0.320312 0.320312l-41.9199 56c-7.32031 9.08008 -19.0801 18.5596 -27.5205 18.5596h-20.4795zM133.12 89.5996c-22.7598 0 -40.96 -18.1992 -40.96 -40.96c0 -22.7598 18.2002 -40.96 40.96 -40.96
s40.96 18.2002 40.96 40.96c0 22.7607 -18.2002 40.96 -40.96 40.96zM409.6 89.5996c-22.7598 0 -40.96 -18.1992 -40.96 -40.96c0 -22.7598 18.2002 -40.96 40.96 -40.96c22.7607 0 40.96 18.2002 40.96 40.96c0 22.7607 -18.1992 40.96 -40.96 40.96z" />
    <glyph glyph-name="gift-filled" unicode="&#xf11d;" 
d="M126.08 437.76c20.4395 0 36.96 -8.63965 49.2803 -20.4795c12.3193 -11.8398 21.1592 -26.7607 29.4395 -40.96c8.28027 -14.2002 16.0801 -27.8398 24.3203 -37.1201s15.7598 -14.0801 26.8799 -14.0801s18.6396 4.7998 26.8799 14.0801s16.04 22.9199 24.3203 37.1201
c8.28027 14.1992 17.1201 29.1201 29.4395 40.96c12.3203 11.8398 28.8408 20.4795 49.2803 20.4795c19.7598 0 34.4805 -6.59961 43.2002 -16.96c8.71973 -10.3594 11.2002 -23.2402 11.2002 -34.2402c0 -26.1592 -14.1602 -47.3994 -33.6006 -61.1191
c-6 -4.24023 -12.3594 -7.60059 -19.2002 -10.5605h114.24v-112.64h-194.56v102.399h-102.4v-102.399h-194.56v112.64h114.24c-6.84082 2.95996 -13.2002 6.32031 -19.2002 10.5605c-19.4404 13.7197 -33.6006 34.96 -33.6006 61.1191c0 11 2.48047 23.8809 11.2002 34.2402
c8.71973 10.3604 23.4404 16.96 43.2002 16.96zM126.08 417.28c-15.4805 0 -22.96 -4.48047 -27.5205 -9.91992c-4.55957 -5.44043 -6.39941 -13.0801 -6.39941 -20.8008c0 -19.0791 9.32031 -33.6797 24.6396 -44.4795c15.3203 -10.7998 36.6406 -16.96 57.2803 -16.96
h40.3203c-0.200195 0.240234 -0.44043 0.399414 -0.640625 0.639648c-10.4795 11.8398 -18.4395 26.3604 -26.5596 40.3203s-16.6006 27.2002 -26.2402 36.4795c-9.63965 9.28027 -19.8799 14.7207 -34.8799 14.7207zM385.92 417.28
c-15 0 -25.2402 -5.44043 -34.8799 -14.7207c-9.63965 -9.2793 -18.1201 -22.5195 -26.2402 -36.4795s-16.0801 -28.4805 -26.5596 -40.3203c-0.200195 -0.240234 -0.44043 -0.399414 -0.640625 -0.639648h40.3203c20.6396 0 41.96 6.16016 57.2803 16.96
c15.3193 10.7998 24.6396 25.4004 24.6396 44.4795c0 7.7207 -1.83984 15.3604 -6.39941 20.8008c-4.56055 5.43945 -12.0801 9.91992 -27.5205 9.91992zM30.7197 181.76h174.08v-215.04h102.4v215.04h174.08v-235.52h-450.561v235.52z" />
    <glyph glyph-name="fairytale-2" unicode="&#xf10e;" 
d="M256 396.8c22.5 0 40.96 -18.46 40.96 -40.96c0 -14.4805 -7.75195 -27.2695 -19.2002 -34.5596l71.04 -163.84l90.2402 80.96c-5.56738 6.99805 -8.95996 15.7119 -8.95996 25.2793c0 22.501 18.46 40.96 40.96 40.96s40.96 -18.459 40.96 -40.96
c0 -21.4199 -16.7402 -38.9844 -37.7598 -40.6396l-34.5605 -140.48c0.319336 -0.854492 0.606445 -2.28809 0.640625 -3.19922v-81.9199c-0.000976562 -5.65234 -4.58887 -10.2402 -10.2402 -10.2402h-348.16c-5.65137 0 -10.2393 4.58789 -10.2402 10.2402v81.9199
c0.00488281 1.00293 0.291016 2.5791 0.640625 3.51953l-34.5605 140.16c-21.0195 1.65527 -37.7598 19.2197 -37.7598 40.6396c0 22.501 18.46 40.96 40.96 40.96s40.96 -18.459 40.96 -40.96c0 -9.48145 -3.4834 -17.9922 -8.95996 -24.96l90.2402 -81.2793l71.04 163.84
c-11.4482 7.29004 -19.2002 20.0791 -19.2002 34.5596c0 22.5 18.46 40.96 40.96 40.96zM256 376.32c-11.4316 0 -20.4805 -9.04785 -20.4805 -20.4805c0 -11.4316 9.04883 -20.4795 20.4805 -20.4795s20.4805 9.04785 20.4805 20.4795
c0 11.4326 -9.04883 20.4805 -20.4805 20.4805zM254.08 315.2l-77.7598 -179.2c-1.46973 -3.42383 -5.68555 -6.20215 -9.41113 -6.20215c-2.19434 0 -5.29004 1.20215 -6.90918 2.68262l-101.12 90.8799l32.6396 -133.761h328.961l32.6396 134.08l-101.12 -91.1992
c-1.61914 -1.48047 -4.71484 -2.68262 -6.90918 -2.68262c-3.72559 0 -7.94141 2.77832 -9.41113 6.20215l-77.4395 179.2c-0.75 -0.0419922 -1.48047 -0.320312 -2.24023 -0.320312c-0.652344 0 -1.27441 0.289062 -1.91992 0.320312zM40.96 284.16
c-11.4316 0 -20.4795 -9.04785 -20.4795 -20.4805c0 -11.4316 9.04785 -20.4795 20.4795 -20.4795s20.4805 9.04785 20.4805 20.4795c0 11.4326 -9.04883 20.4805 -20.4805 20.4805zM471.04 284.16c-11.4326 0 -20.4805 -9.04785 -20.4805 -20.4805
c0 -11.4316 9.04785 -20.4795 20.4805 -20.4795c11.4316 0 20.4795 9.04785 20.4795 20.4795c0 11.4326 -9.04785 20.4805 -20.4795 20.4805zM92.1602 69.1201v-61.4404h327.68v61.4404h-327.68z" />
    <glyph glyph-name="left" unicode="&#xf103;" 
d="M202.88 313.92c0.455078 0.0751953 1.19922 0.135742 1.66113 0.135742c5.65234 0 10.2402 -4.58789 10.2402 -10.2412c0 -2.45996 -1.46094 -5.81738 -3.26172 -7.49414l-94.0791 -94.0801h302.399l0.144531 0.000976562c5.65332 0 10.2412 -4.58789 10.2412 -10.2412
s-4.58789 -10.2412 -10.2412 -10.2412l-0.144531 0.000976562h-302.399l94.0791 -94.0801c2.10645 -1.69629 3.81543 -5.26953 3.81543 -7.97363c0 -5.65332 -4.58789 -10.2412 -10.2412 -10.2412c-2.7041 0 -6.27637 1.70898 -7.97363 3.81543l-111.68 111.359
l-7.04004 7.36035l7.04004 7.36035l111.68 111.359c1.29004 1.42383 3.87012 2.85742 5.75977 3.2002z" />
  </font>
</defs>
</svg>
